<?xml version="1.0" standalone="no"?>
<!DOCTYPE svg PUBLIC "-//W3C//DTD SVG 1.1//EN" "http://www.w3.org/Graphics/SVG/1.1/DTD/svg11.dtd" >
<svg xmlns="http://www.w3.org/2000/svg">
<metadata>Generated by IcoMoon</metadata>
<defs>
<font id="vcv-feather" horiz-adv-x="1024">
<font-face units-per-em="1024" ascent="1024" descent="0" />
<missing-glyph horiz-adv-x="1024" />
<glyph unicode="&#x20;" horiz-adv-x="0" d="" />
<glyph unicode="&#xe900;" glyph-name="activity" d="M938.667 554.667h-170.667c-18.4 0-34.667-11.733-40.533-29.067l-87.467-262.667-215.467 646.667c-5.867 17.333-22.133 29.067-40.533 29.067s-34.667-11.733-40.533-29.067l-118.133-354.933h-140c-23.467 0-42.667-19.2-42.667-42.667s19.2-42.667 42.667-42.667h170.667c18.4 0 34.667 11.733 40.533 29.067l87.467 262.667 215.467-646.667c5.867-17.333 22.133-29.067 40.533-29.067s34.667 11.733 40.533 29.067l118.133 354.933h140c23.467 0 42.667 19.2 42.667 42.667s-19.2 42.667-42.667 42.667z" />
<glyph unicode="&#xe901;" glyph-name="airplay" d="M853.333 938.667h-682.667c-70.667 0-128-57.333-128-128v-426.667c0-70.667 57.333-128 128-128h42.667c23.467 0 42.667 19.2 42.667 42.667s-19.2 42.667-42.667 42.667h-42.667c-23.467 0-42.667 19.2-42.667 42.667v426.667c0 23.467 19.2 42.667 42.667 42.667h682.667c23.467 0 42.667-19.2 42.667-42.667v-426.667c0-23.467-19.2-42.667-42.667-42.667h-42.667c-23.467 0-42.667-19.2-42.667-42.667s19.2-42.667 42.667-42.667h42.667c70.667 0 128 57.333 128 128v426.667c0 70.667-57.333 128-128 128zM544.8 411.2c-8 9.6-20 15.467-32.8 15.467-12.533 0-24.8-5.6-32.8-15.467l-213.333-256c-10.667-12.8-12.8-30.4-5.867-45.333s22.133-24.533 38.667-24.533h426.667c16.533 0 31.733 9.6 38.667 24.533s4.8 32.8-5.867 45.333l-213.333 256zM389.867 170.667l122.133 146.667 122.133-146.667h-244.267z" />
<glyph unicode="&#xe902;" glyph-name="alert-circle" d="M512 981.333c-258.667 0-469.333-210.667-469.333-469.333s210.667-469.333 469.333-469.333 469.333 210.667 469.333 469.333-210.667 469.333-469.333 469.333zM512 128c-211.733 0-384 172.267-384 384s172.267 384 384 384c211.733 0 384-172.267 384-384s-172.267-384-384-384zM512 725.333c-23.467 0-42.667-19.2-42.667-42.667v-170.667c0-23.467 19.2-42.667 42.667-42.667s42.667 19.2 42.667 42.667v170.667c0 23.467-19.2 42.667-42.667 42.667zM512 384c-11.2 0-22.133-4.533-30.133-12.533s-12.533-18.933-12.533-30.133 4.533-22.133 12.533-30.133c8-8 18.933-12.533 30.133-12.533s22.133 4.533 30.133 12.533c8 8 12.533 18.933 12.533 30.133s-4.533 22.133-12.533 30.133c-8 8-18.933 12.533-30.133 12.533z" />
<glyph unicode="&#xe903;" glyph-name="alert-octagon" d="M968.8 718.933l-250.133 250.133c-8 8-18.933 12.533-30.133 12.533h-353.067c-11.2 0-22.133-4.533-30.133-12.533l-250.133-250.133c-8-8-12.533-18.933-12.533-30.133v-353.333c0-11.2 4.533-22.133 12.533-30.133l250.133-250.133c8-8 18.933-12.533 30.133-12.533h353.333c11.2 0 22.133 4.533 30.133 12.533l250.133 250.133c8 8 12.533 18.933 12.533 30.133v353.067c-0.267 11.467-4.8 22.4-12.8 30.4zM896 353.067l-225.067-225.067h-317.867l-225.067 225.067v317.867l225.067 225.067h317.867l225.067-225.067v-317.867zM512 725.333c-23.467 0-42.667-19.2-42.667-42.667v-170.667c0-23.467 19.2-42.667 42.667-42.667s42.667 19.2 42.667 42.667v170.667c0 23.467-19.2 42.667-42.667 42.667zM512 384c-11.2 0-22.133-4.533-30.133-12.533s-12.533-18.933-12.533-30.133 4.533-22.133 12.533-30.133c8-8 18.933-12.533 30.133-12.533s22.133 4.533 30.133 12.533c8 8 12.533 18.933 12.533 30.133s-4.533 22.133-12.533 30.133c-8 8-18.933 12.533-30.133 12.533z" />
<glyph unicode="&#xe904;" glyph-name="alert-triangle" d="M982.933 277.867c0 0-0.267 0.267-0.267 0.267l-361.067 603.2c0 0.267-0.267 0.267-0.267 0.533-23.733 38.4-64.533 61.333-109.333 61.333s-85.6-22.933-109.067-61.067c-0.267-0.267-0.533-0.533-0.533-1.067l-361.333-603.2c0 0 0-0.267-0.267-0.267-11.2-19.2-17.333-41.6-17.333-64.267 0-69.867 56.8-127.2 126.4-128 0.267 0 0.267 0 0.533 0h722.933c0.267 0 0.267 0 0.533 0 69.867 0.8 126.667 58.133 126.667 128 0 22.667-6.133 45.067-17.6 64.533zM873.067 170.667h-722.133c-23.2 0.267-41.867 19.467-41.867 42.667 0 7.467 1.867 14.667 5.6 21.067l361.067 602.933c0 0 0.267 0.267 0.267 0.267 8 12.533 21.333 20 36.267 20s28.533-7.733 36.533-20.533l360.533-602.4c3.733-6.4 5.6-13.867 5.6-21.333 0.267-23.2-18.667-42.4-41.867-42.667zM512 682.667c-23.467 0-42.667-19.2-42.667-42.667v-170.667c0-23.467 19.2-42.667 42.667-42.667s42.667 19.2 42.667 42.667v170.667c0 23.467-19.2 42.667-42.667 42.667zM512 341.333c-11.2 0-22.133-4.533-30.133-12.533s-12.533-18.933-12.533-30.133 4.533-22.133 12.533-30.133c8-8 18.933-12.533 30.133-12.533s22.133 4.533 30.133 12.533c8 8 12.533 18.933 12.533 30.133s-4.533 22.133-12.533 30.133c-8 8-18.933 12.533-30.133 12.533z" />
<glyph unicode="&#xe905;" glyph-name="align-center" d="M256 640c-23.467 0-42.667-19.2-42.667-42.667s19.2-42.667 42.667-42.667h512c23.467 0 42.667 19.2 42.667 42.667s-19.2 42.667-42.667 42.667h-512zM128 725.333h768c23.467 0 42.667 19.2 42.667 42.667s-19.2 42.667-42.667 42.667h-768c-23.467 0-42.667-19.2-42.667-42.667s19.2-42.667 42.667-42.667zM896 469.333h-768c-23.467 0-42.667-19.2-42.667-42.667s19.2-42.667 42.667-42.667h768c23.467 0 42.667 19.2 42.667 42.667s-19.2 42.667-42.667 42.667zM768 298.667h-512c-23.467 0-42.667-19.2-42.667-42.667s19.2-42.667 42.667-42.667h512c23.467 0 42.667 19.2 42.667 42.667s-19.2 42.667-42.667 42.667z" />
<glyph unicode="&#xe906;" glyph-name="align-justify" d="M896 640h-768c-23.467 0-42.667-19.2-42.667-42.667s19.2-42.667 42.667-42.667h768c23.467 0 42.667 19.2 42.667 42.667s-19.2 42.667-42.667 42.667zM128 725.333h768c23.467 0 42.667 19.2 42.667 42.667s-19.2 42.667-42.667 42.667h-768c-23.467 0-42.667-19.2-42.667-42.667s19.2-42.667 42.667-42.667zM896 469.333h-768c-23.467 0-42.667-19.2-42.667-42.667s19.2-42.667 42.667-42.667h768c23.467 0 42.667 19.2 42.667 42.667s-19.2 42.667-42.667 42.667zM896 298.667h-768c-23.467 0-42.667-19.2-42.667-42.667s19.2-42.667 42.667-42.667h768c23.467 0 42.667 19.2 42.667 42.667s-19.2 42.667-42.667 42.667z" />
<glyph unicode="&#xe907;" glyph-name="align-left" d="M128 554.667h597.333c23.467 0 42.667 19.2 42.667 42.667s-19.2 42.667-42.667 42.667h-597.333c-23.467 0-42.667-19.2-42.667-42.667s19.2-42.667 42.667-42.667zM128 725.333h768c23.467 0 42.667 19.2 42.667 42.667s-19.2 42.667-42.667 42.667h-768c-23.467 0-42.667-19.2-42.667-42.667s19.2-42.667 42.667-42.667zM896 469.333h-768c-23.467 0-42.667-19.2-42.667-42.667s19.2-42.667 42.667-42.667h768c23.467 0 42.667 19.2 42.667 42.667s-19.2 42.667-42.667 42.667zM725.333 298.667h-597.333c-23.467 0-42.667-19.2-42.667-42.667s19.2-42.667 42.667-42.667h597.333c23.467 0 42.667 19.2 42.667 42.667s-19.2 42.667-42.667 42.667z" />
<glyph unicode="&#xe908;" glyph-name="align-right" d="M896 640h-597.333c-23.467 0-42.667-19.2-42.667-42.667s19.2-42.667 42.667-42.667h597.333c23.467 0 42.667 19.2 42.667 42.667s-19.2 42.667-42.667 42.667zM128 725.333h768c23.467 0 42.667 19.2 42.667 42.667s-19.2 42.667-42.667 42.667h-768c-23.467 0-42.667-19.2-42.667-42.667s19.2-42.667 42.667-42.667zM896 469.333h-768c-23.467 0-42.667-19.2-42.667-42.667s19.2-42.667 42.667-42.667h768c23.467 0 42.667 19.2 42.667 42.667s-19.2 42.667-42.667 42.667zM896 298.667h-597.333c-23.467 0-42.667-19.2-42.667-42.667s19.2-42.667 42.667-42.667h597.333c23.467 0 42.667 19.2 42.667 42.667s-19.2 42.667-42.667 42.667z" />
<glyph unicode="&#xe909;" glyph-name="anchor" d="M938.667 554.667h-128c-23.467 0-42.667-19.2-42.667-42.667s19.2-42.667 42.667-42.667h82.933c-19.733-177.6-161.333-319.2-338.933-338.933v514.933c73.6 18.933 128 85.867 128 165.333 0 94.133-76.533 170.667-170.667 170.667s-170.667-76.533-170.667-170.667c0-79.467 54.4-146.4 128-165.333v-514.933c-177.6 19.733-319.2 161.333-338.933 338.933h82.933c23.467 0 42.667 19.2 42.667 42.667s-19.2 42.667-42.667 42.667h-128c-23.467 0-42.667-19.2-42.667-42.667 0-258.667 210.667-469.333 469.333-469.333s469.333 210.667 469.333 469.333c0 23.467-19.2 42.667-42.667 42.667zM426.667 810.667c0 46.933 38.4 85.333 85.333 85.333s85.333-38.4 85.333-85.333-38.4-85.333-85.333-85.333c-46.933 0-85.333 38.4-85.333 85.333z" />
<glyph unicode="&#xe90a;" glyph-name="aperture" d="M892.8 238.133c55.733 77.067 88.533 171.733 88.533 273.867 0 65.067-13.333 127.2-37.333 183.733-0.8 2.933-2.133 5.6-3.467 8-66.133 147.2-206.133 254.667-372.8 274.4-2.133 0.267-4.267 0.533-6.133 0.8-16.267 1.6-32.8 2.667-49.333 2.667-152.8-0.267-288.533-73.333-374.133-186.4-2.667-2.933-5.067-5.867-6.933-9.333-55.733-77.067-88.533-171.733-88.533-273.867 0-65.067 13.333-127.2 37.333-183.733 0.8-2.933 2.133-5.6 3.467-8 66.133-147.2 206.133-254.667 372.8-274.4 2.133-0.267 4.267-0.533 6.4-0.8 16.267-1.6 32.8-2.667 49.333-2.667 152.533 0 288.267 73.067 373.867 186.133 2.933 2.933 5.067 6.133 6.933 9.6zM585.867 384h-147.733l-73.867 128 73.867 128h147.733l73.867-128-73.867-128zM128 512c0 60.8 14.133 118.667 39.467 169.867l109.867-190.133c0.267-0.533 0.533-1.067 1.067-1.6l61.067-105.867h-189.6c-14.133 39.733-21.867 82.933-21.867 127.733zM746.667 532.533c-0.267 0.533-0.8 1.333-1.067 1.867l-61.067 105.6h189.6c14.133-40 21.867-83.2 21.867-128 0-60.8-14.133-118.667-39.467-169.867l-109.867 190.4zM831.2 725.333h-220c-0.533 0-0.8 0-1.333 0h-122.4l94.933 164.267c103.2-19.2 192.267-80 248.8-164.267zM486.933 895.2l-110.133-190.933c0-0.267-0.267-0.267-0.267-0.533l-61.333-106.4-94.933 164c65.333 76.533 160 126.933 266.667 133.867zM192.8 298.667h219.733c0.267 0 0.533 0 0.8 0s0.533 0 0.8 0h122.4l-94.933-164.267c-103.2 19.2-192.267 80-248.8 164.267zM537.067 128.8l110.133 190.933c0.267 0.267 0.267 0.533 0.533 0.8l61.333 106.4 94.667-164c-65.333-76.8-160-127.2-266.667-134.133z" />
<glyph unicode="&#xe90b;" glyph-name="arrow-down" d="M798.133 456.8c-16.533 16.533-43.733 16.533-60.267 0l-183.2-183.2v579.733c0 23.467-19.2 42.667-42.667 42.667s-42.667-19.2-42.667-42.667v-579.733l-183.2 183.2c-16.533 16.533-43.733 16.533-60.267 0s-16.533-43.733 0-60.267l256-256c0.533-0.533 1.067-1.067 1.6-1.6 0 0 0 0 0 0s0.267-0.267 0.267-0.267c0 0 0 0 0.267-0.267 0 0 0 0 0.267-0.267 0 0 0.267-0.267 0.267-0.267s0 0 0 0 0.267-0.267 0.267-0.267c0 0 0 0 0 0 3.2-2.667 6.4-4.533 9.867-6.133 0 0 0 0 0.267 0 0 0 0 0 0.267 0 4.533-1.867 9.6-3.2 14.933-3.467 0 0 0 0 0 0 0.267 0 0.267 0 0.533 0 0 0 0 0 0 0s0.267 0 0.267 0c0 0 0.267 0 0.267 0s0.267 0 0.267 0 0.267 0 0.533 0 0.267 0 0.533 0c0 0 0.267 0 0.267 0s0.267 0 0.267 0c0 0 0.267 0 0.267 0s0 0 0 0c0.267 0 0.267 0 0.533 0 0 0 0 0 0 0 5.333 0.267 10.4 1.333 14.933 3.467 0 0 0 0 0 0s0.267 0 0.267 0c0 0 0.267 0 0.267 0s0 0 0 0c3.2 1.333 6.133 3.2 9.067 5.6 0 0 0 0 0 0s0.267 0.267 0.267 0.267c0 0 0 0 0 0s0.267 0.267 0.267 0.267c0 0 0 0 0.267 0.267 0 0 0 0 0.267 0.267 0 0 0.267 0.267 0.267 0.267s0 0 0 0c0.8 0.533 1.333 1.333 2.133 2.133l255.733 255.733c17.333 16.8 17.333 44 0.533 60.533z" />
<glyph unicode="&#xe90c;" glyph-name="arrow-left" d="M853.333 554.667h-579.733l183.2 183.2c16.533 16.533 16.533 43.733 0 60.267s-43.733 16.533-60.267 0l-256-256c-0.533-0.533-0.8-0.8-1.333-1.333 0 0 0 0 0 0s-0.267-0.267-0.267-0.267c0 0-0.267-0.267-0.267-0.267s0 0 0-0.267c0 0-0.267-0.267-0.267-0.267v0c-2.933-3.2-5.067-6.933-6.933-10.667 0 0 0 0 0 0s0-0.267 0-0.267c0 0 0-0.267 0-0.267s0 0 0 0c-2.133-5.067-3.2-10.667-3.2-16.533s1.067-11.467 3.2-16.533c0 0 0 0 0 0s0-0.267 0.267-0.267c0 0 0 0 0-0.267 0 0 0 0 0-0.267 1.6-3.733 3.733-7.2 6.4-10.4 0 0 0 0 0 0s0.267-0.267 0.267-0.267c0 0 0 0 0.267-0.267 0 0 0 0 0.267-0.267 0 0 0.267-0.267 0.267-0.267s0 0 0 0c0.533-0.533 1.067-1.067 1.6-1.6l256-256c8.267-8.267 19.2-12.533 30.133-12.533s21.867 4.267 30.133 12.533c16.533 16.533 16.533 43.733 0 60.267l-183.467 183.467h579.733c23.467 0 42.667 19.2 42.667 42.667s-19.2 42.667-42.667 42.667z" />
<glyph unicode="&#xe90d;" glyph-name="arrow-right" d="M885.067 483.467c0 0 0 0 0 0 0.267 0.267 0.267 0.267 0.267 0.267s0 0 0 0 0.267 0.267 0.267 0.267c0 0 0.267 0.267 0.267 0.267s0 0 0 0 0.267 0.267 0.267 0.267c0 0 0 0 0 0 2.667 3.2 4.8 6.667 6.4 10.4 0 0 0 0 0 0.267 0 0 0 0.267 0 0.267s0 0.267 0 0.267c0 0 0 0 0 0 1.6 4 2.667 8.267 2.933 12.8 0 0 0 0 0 0s0 0.267 0 0.267c0 0 0 0.267 0 0.267s0 0.267 0 0.267c0 0 0 0.267 0 0.267s0 0 0 0.267c0 1.067 0 2.133 0 3.2 0 0 0 0 0 0.267 0 0 0 0.267 0 0.267s0 0.267 0 0.267c0 0 0 0.267 0 0.267s0 0.267 0 0.267c0 0 0 0 0 0-0.267 4.533-1.333 8.8-2.933 12.8 0 0 0 0 0 0.267 0 0 0 0 0 0.267 0 0 0 0.267-0.267 0.267 0 0 0 0 0 0-1.6 4-4 7.467-6.667 10.933 0 0 0 0 0 0s-0.267 0.267-0.267 0.267c0 0 0 0 0 0s-0.267 0.267-0.267 0.267-0.267 0.267-0.267 0.267 0 0 0 0.267c-0.533 0.533-1.067 1.067-1.6 1.6l-256 256c-16.533 16.533-43.733 16.533-60.267 0s-16.533-43.733 0-60.267l183.2-183.2h-579.467c-23.467 0-42.667-19.2-42.667-42.667s19.2-42.667 42.667-42.667h579.733l-183.2-183.2c-16.533-16.533-16.533-43.733 0-60.267 8.267-8.267 19.2-12.533 30.133-12.533s21.867 4.267 30.133 12.533l255.733 255.733c0.8 1.067 1.333 1.867 1.867 2.4z" />
<glyph unicode="&#xe90e;" glyph-name="arrow-up" d="M798.133 627.467l-256 256c-0.533 0.533-1.067 1.067-1.6 1.6 0 0 0 0-0.267 0 0 0-0.267 0.267-0.267 0.267s-0.267 0-0.267 0.267c0 0 0 0-0.267 0 0 0-0.267 0.267-0.267 0.267s0 0 0 0c-3.2 2.933-6.933 5.067-10.933 6.667 0 0 0 0 0 0s-0.267 0-0.267 0c0 0 0 0-0.267 0 0 0 0 0-0.267 0-4 1.6-8.267 2.667-12.8 2.933 0 0 0 0 0 0s-0.267 0-0.267 0c0 0-0.267 0-0.267 0s-0.267 0-0.267 0c0 0-0.267 0-0.267 0s0 0-0.267 0c-1.067 0-2.133 0-3.2 0 0 0 0 0-0.267 0 0 0-0.267 0-0.267 0s-0.267 0-0.267 0c0 0-0.267 0-0.267 0s-0.267 0-0.267 0c0 0 0 0 0 0-4.267-0.267-8.533-1.333-12.533-2.933 0 0 0 0 0 0s-0.267 0-0.267 0c0 0-0.267 0-0.267 0s0 0 0 0c-4.267-1.6-8-4-11.733-7.2 0 0 0 0 0 0s-0.267-0.267-0.267-0.267c0 0 0 0 0 0s-0.267-0.267-0.267-0.267c0 0-0.267-0.267-0.267-0.267s0 0 0 0c-0.533-0.267-0.8-0.8-1.333-1.333l-256-256c-16.533-16.533-16.533-43.733 0-60.267s43.733-16.533 60.267 0l183.2 183.2v-579.467c0-23.467 19.2-42.667 42.667-42.667s42.667 19.2 42.667 42.667v579.733l183.2-183.2c8.267-8.267 19.2-12.533 30.133-12.533s21.867 4.267 30.133 12.533c16.8 16.533 16.8 43.733 0 60.267z" />
<glyph unicode="&#xe90f;" glyph-name="at-sign" d="M512 981.333c-258.667 0-469.333-210.667-469.333-469.333s210.667-469.333 469.333-469.333c104.8 0 203.733 33.6 286.4 97.6 18.667 14.4 22.133 41.067 7.733 59.733s-41.067 22.133-59.733 7.733c-67.733-52.267-148.8-79.733-234.4-79.733-211.733 0-384 172.267-384 384s172.267 384 384 384c211.733 0 384-172.267 384-384v-42.667c0-46.933-38.4-85.333-85.333-85.333s-85.333 38.4-85.333 85.333v42.667c0 117.6-95.733 213.333-213.333 213.333s-213.333-95.733-213.333-213.333 95.733-213.333 213.333-213.333c63.467 0 120.533 27.733 159.467 72 30.933-43.467 81.867-72 139.2-72 94.133 0 170.667 76.533 170.667 170.667v42.667c0 258.667-210.667 469.333-469.333 469.333zM512 384c-70.667 0-128 57.333-128 128s57.333 128 128 128c70.667 0 128-57.333 128-128s-57.333-128-128-128z" />
<glyph unicode="&#xe910;" glyph-name="award" d="M719.467 411.733c81.333 62.4 133.867 160.8 133.867 270.933 0 188.267-153.067 341.333-341.333 341.333s-341.333-153.067-341.333-341.333c0-110.4 52.533-208.533 133.867-270.933l-48.267-363.467c-2.133-16.267 5.067-32.267 18.933-41.333 13.6-9.067 31.2-9.333 45.333-0.8l191.467 114.933 191.467-114.933c6.667-4 14.4-6.133 21.867-6.133 8.267 0 16.267 2.4 23.467 6.933 13.6 9.067 21.067 25.067 18.933 41.333l-48.267 363.467zM256 682.667c0 141.067 114.933 256 256 256s256-114.933 256-256c0-89.067-45.6-167.467-114.933-213.6-1.867-1.067-3.467-2.133-5.067-3.2-39.467-24.8-86.133-39.2-136-39.2-141.067 0-256 114.933-256 256zM533.867 207.2c-13.6 8-30.4 8-44 0l-137.333-82.4 32 241.067c39.467-16 82.4-24.533 127.467-24.533s88 8.8 127.467 24.533l32-241.333-137.6 82.667z" />
<glyph unicode="&#xe911;" glyph-name="bar-chart-2" d="M554.667 938.667h-85.333c-46.933 0-85.333-38.4-85.333-85.333v-682.667c0-46.933 38.4-85.333 85.333-85.333h85.333c46.933 0 85.333 38.4 85.333 85.333v682.667c0 46.933-38.4 85.333-85.333 85.333zM554.667 170.667h-85.333v682.667c0 0 0 0 0 0h85.333v-682.667zM896 725.333h-85.333c-46.933 0-85.333-38.4-85.333-85.333v-469.333c0-46.933 38.4-85.333 85.333-85.333h85.333c46.933 0 85.333 38.4 85.333 85.333v469.333c0 46.933-38.4 85.333-85.333 85.333zM896 170.667h-85.333v469.333c0 0 0 0 0 0h85.333v-469.333zM213.333 512h-85.333c-46.933 0-85.333-38.4-85.333-85.333v-256c0-46.933 38.4-85.333 85.333-85.333h85.333c46.933 0 85.333 38.4 85.333 85.333v256c0 46.933-38.4 85.333-85.333 85.333zM213.333 170.667h-85.333v256c0 0 0 0 0 0h85.333v-256z" />
<glyph unicode="&#xe912;" glyph-name="bar-chart" d="M896 938.667h-85.333c-46.933 0-85.333-38.4-85.333-85.333v-682.667c0-46.933 38.4-85.333 85.333-85.333h85.333c46.933 0 85.333 38.4 85.333 85.333v682.667c0 46.933-38.4 85.333-85.333 85.333zM896 170.667h-85.333v682.667c0 0 0 0 0 0h85.333v-682.667zM554.667 725.333h-85.333c-46.933 0-85.333-38.4-85.333-85.333v-469.333c0-46.933 38.4-85.333 85.333-85.333h85.333c46.933 0 85.333 38.4 85.333 85.333v469.333c0 46.933-38.4 85.333-85.333 85.333zM554.667 170.667h-85.333v469.333c0 0 0 0 0 0h85.333v-469.333zM213.333 512h-85.333c-46.933 0-85.333-38.4-85.333-85.333v-256c0-46.933 38.4-85.333 85.333-85.333h85.333c46.933 0 85.333 38.4 85.333 85.333v256c0 46.933-38.4 85.333-85.333 85.333zM213.333 170.667h-85.333v256c0 0 0 0 0 0h85.333v-256z" />
<glyph unicode="&#xe913;" glyph-name="battery" d="M725.333 810.667h-597.333c-70.667 0-128-57.333-128-128v-341.333c0-70.667 57.333-128 128-128h597.333c70.667 0 128 57.333 128 128v341.333c0 70.667-57.333 128-128 128zM768 341.333c0-23.467-19.2-42.667-42.667-42.667h-597.333c-23.467 0-42.667 19.2-42.667 42.667v341.333c0 23.467 19.2 42.667 42.667 42.667h597.333c23.467 0 42.667-19.2 42.667-42.667v-341.333zM981.333 597.333c-23.467 0-42.667-19.2-42.667-42.667v-85.333c0-23.467 19.2-42.667 42.667-42.667s42.667 19.2 42.667 42.667v85.333c0 23.467-19.2 42.667-42.667 42.667z" />
<glyph unicode="&#xe914;" glyph-name="bell-off" d="M386.4 863.2c37.333 21.6 80.8 32.8 125.6 32.8 141.067 0 256-114.933 256-256.267v-170.667c0-23.467 19.2-42.667 42.667-42.667s42.667 19.2 42.667 42.667v170.933c0 188.267-153.067 341.333-341.333 341.333-59.467 0-117.6-15.2-168-44.267-20.533-11.733-27.467-37.867-15.733-58.133s37.867-27.467 58.133-15.733zM607.467 164.8c-20.267 12-46.4 5.067-58.4-15.2-8-13.333-21.867-21.6-37.067-21.6s-29.067 8-36.8 21.067c-12 20.267-38.133 27.2-58.4 15.2s-27.2-38.133-15.2-58.4c22.933-38.933 65.333-63.2 110.4-63.2s87.467 24.267 110.667 63.467c12 20.533 5.067 46.667-15.2 58.667zM1011.467 72.8l-255.733 255.733c0 0-0.267 0.267-0.267 0.267l-470.667 470.667c-3.733 6.933-9.6 12.8-16.8 16.8l-195.2 195.2c-16.533 16.533-43.733 16.533-60.267 0s-16.533-43.733 0-60.267l182.933-182.933c-16.267-40.533-24.8-84-24.8-127.733v-213.867c0-46.933-38.4-85.333-85.333-85.333-23.467 0-42.667-19.2-42.667-42.667s19.2-42.667 42.667-42.667h622.4l243.467-243.467c8.267-8.267 19.2-12.533 30.133-12.533s21.867 4.267 30.133 12.533c16.8 16.533 16.8 43.733 0 60.267zM233.067 341.333c14.667 25.067 22.933 54.4 22.933 85.333v213.6c0 20.533 2.4 40.8 6.933 60.267l359.467-359.2h-389.333z" />
<glyph unicode="&#xe915;" glyph-name="bell" d="M938.667 341.333c-46.933 0-85.333 38.4-85.333 85.333v213.333c0 188.267-153.067 341.333-341.333 341.333s-341.333-153.067-341.333-341.333v-213.333c0-46.933-38.4-85.333-85.333-85.333-23.467 0-42.667-19.2-42.667-42.667s19.2-42.667 42.667-42.667h853.333c23.467 0 42.667 19.2 42.667 42.667s-19.2 42.667-42.667 42.667zM233.067 341.333c14.667 25.067 22.933 54.4 22.933 85.333v213.333c0 141.067 114.933 256 256 256s256-114.933 256-256v-213.333c0-30.933 8.267-60.267 22.933-85.333h-557.867zM607.467 164.8c-20.267 12-46.4 5.067-58.4-15.2-8-13.333-21.867-21.6-37.067-21.6s-29.067 8-36.8 21.067c-12 20.267-38.133 27.2-58.4 15.2s-27.2-38.133-15.2-58.4c22.933-38.933 65.333-63.2 110.4-63.2s87.467 24.267 110.667 63.467c12 20.533 5.067 46.667-15.2 58.667z" />
<glyph unicode="&#xe916;" glyph-name="bluetooth" d="M572.267 512l204.533 204.533c16.533 16.533 16.533 43.733 0 60.267l-234.667 234.667c-12.267 12.267-30.667 15.733-46.4 9.333-16-6.667-26.4-22.133-26.4-39.467v-366.4l-161.867 161.867c-16.533 16.533-43.733 16.533-60.267 0s-16.533-43.733 0-60.267l204.533-204.533-204.533-204.533c-16.533-16.533-16.533-43.733 0-60.267s43.733-16.533 60.267 0l161.867 161.867v-366.4c0-17.333 10.4-32.8 26.4-39.467 5.333-2.133 10.933-3.2 16.267-3.2 11.2 0 22.133 4.267 30.133 12.533l234.667 234.667c16.533 16.533 16.533 43.733 0 60.267l-204.533 204.533zM554.667 878.4l131.733-131.733-131.733-131.733v263.467zM554.667 145.6v263.2l131.733-131.733-131.733-131.467z" />
<glyph unicode="&#xe917;" glyph-name="book" d="M853.333 981.333h-576c-82.4 0-149.333-66.933-149.333-149.333v-640c0-82.4 66.933-149.333 149.333-149.333h576c23.467 0 42.667 19.2 42.667 42.667v853.333c0 23.467-19.2 42.667-42.667 42.667zM277.333 896h533.333v-554.667h-533.333c-22.933 0-44.533-5.067-64-14.4v505.067c0 35.2 28.8 64 64 64zM277.333 128c-35.2 0-64 28.8-64 64s28.8 64 64 64h533.333v-128h-533.333z" />
<glyph unicode="&#xe918;" glyph-name="bookmark" d="M725.333 938.667h-426.667c-70.667 0-128-57.333-128-128v-682.667c0-16 8.8-30.667 23.2-37.867 14.133-7.2 31.2-6.133 44.267 3.2l273.867 195.467 273.867-195.467c7.467-5.333 16-8 24.8-8 6.667 0 13.333 1.6 19.467 4.8 14.133 7.2 23.2 21.867 23.2 37.867v682.667c0 70.667-57.333 128-128 128zM768 210.933l-231.2 165.067c-7.467 5.333-16 8-24.8 8s-17.333-2.667-24.8-8l-231.2-165.067v599.733c0 23.467 19.2 42.667 42.667 42.667h426.667c23.467 0 42.667-19.2 42.667-42.667v-599.733z" />
<glyph unicode="&#xe919;" glyph-name="box" d="M910.4 829.6l-339.733 169.867c-0.267 0.267-0.533 0.267-0.8 0.533-17.867 9.067-37.867 13.6-57.867 13.6s-39.733-4.8-57.067-13.333l-341.867-170.933c-43.467-21.867-70.4-65.6-70.4-114.133v-406.667c0-48.267 26.933-92 70.133-114.133 0 0 0.267 0 0.267-0.267l340.8-170.4c17.867-9.067 37.867-13.867 57.867-13.867s40 4.8 57.333 13.6l341.867 170.933c43.2 21.867 70.133 65.6 70.4 114.133v406.667c0 48.533-27.2 92.267-70.933 114.4zM493.333 924c3.733 1.867 10.133 4.267 18.667 4.267 6.4 0 12.533-1.333 18.133-4 0.267 0 0.533-0.267 0.8-0.267l312-156-330.933-165.6-330.933 165.6 312.267 156zM151.467 270.133c-14.667 7.467-23.467 22.133-23.467 38.133 0 0.267 0 0.267 0 0.533v390.133l341.333-170.667v-417.067l-317.867 158.933zM872.8 270.4l-318.133-158.933v416.8l341.333 170.667v-390.4c0-16.267-9.067-30.933-23.2-38.133z" />
<glyph unicode="&#xe91a;" glyph-name="briefcase" d="M853.333 768h-128v42.667c0 70.667-57.333 128-128 128h-170.667c-70.667 0-128-57.333-128-128v-42.667h-128c-70.667 0-128-57.333-128-128v-426.667c0-70.667 57.333-128 128-128h682.667c70.667 0 128 57.333 128 128v426.667c0 70.667-57.333 128-128 128zM384 810.667c0 23.467 19.2 42.667 42.667 42.667h170.667c23.467 0 42.667-19.2 42.667-42.667v-42.667h-256v42.667zM640 682.667v-512h-256v512h256zM128 213.333v426.667c0 23.467 19.2 42.667 42.667 42.667h128v-512h-128c-23.467 0-42.667 19.2-42.667 42.667zM896 213.333c0-23.467-19.2-42.667-42.667-42.667h-128v512h128c23.467 0 42.667-19.2 42.667-42.667v-426.667z" />
<glyph unicode="&#xe91b;" glyph-name="camera-off" d="M1011.467 72.8l-85.067 85.067c0 0-0.267 0.267-0.267 0.267l-243.467 243.467c-0.267 0.267-0.8 0.8-1.067 1.067l-395.467 395.467c0 0 0 0-0.267 0.267l-213.333 213.333c-16.533 16.533-43.733 16.533-60.267 0s-16.533-43.733 0-60.267l140.8-140.8h-25.067c-70.667 0-128-57.333-128-128v-469.333c0-70.667 57.333-128 128-128h750.4l72.8-72.8c8.267-8.267 19.2-12.533 30.133-12.533s21.867 4.267 30.133 12.533c16.8 16.533 16.8 43.733 0 60.267zM413.067 550.667l180.267-180.267c-22.933-19.2-51.733-29.867-82.133-29.867-70.667 0-128 57.333-128 128 0 30.4 10.667 59.2 29.867 82.133zM128 170.667c-23.467 0-42.667 19.2-42.667 42.667v469.333c0 23.467 19.2 42.667 42.667 42.667h110.4l114.133-114.133c-34.933-38.667-54.667-89.333-54.667-142.667 0-117.6 95.733-213.333 213.333-213.333 53.067 0 103.733 20 142.667 54.933l139.2-139.2h-665.067zM384 853.333h233.067l72.533-109.067c8-12 21.333-18.933 35.467-18.933h170.667c23.467 0 42.667-19.2 42.667-42.667v-398.4c0-23.467 19.2-42.667 42.667-42.667s42.667 19.2 42.667 42.667v398.4c0 70.667-57.333 128-128 128h-147.733l-72.533 109.067c-8 12-21.333 18.933-35.467 18.933h-256c-23.467 0-42.667-19.2-42.667-42.667s19.2-42.667 42.667-42.667z" />
<glyph unicode="&#xe91c;" glyph-name="camera" d="M896 810.667h-147.733l-72.533 109.067c-8 12-21.333 18.933-35.467 18.933h-256c-14.133 0-27.467-7.2-35.467-18.933l-73.067-109.067h-147.733c-70.667 0-128-57.333-128-128v-469.333c0-70.667 57.333-128 128-128h768c70.667 0 128 57.333 128 128v469.333c0 70.667-57.333 128-128 128zM938.667 213.333c0-23.467-19.2-42.667-42.667-42.667h-768c-23.467 0-42.667 19.2-42.667 42.667v469.333c0 23.467 19.2 42.667 42.667 42.667h170.667c14.133 0 27.467 7.2 35.467 18.933l72.8 109.067h210.4l72.533-109.067c8-12 21.333-18.933 35.467-18.933h170.667c23.467 0 42.667-19.2 42.667-42.667v-469.333zM512 682.667c-117.6 0-213.333-95.733-213.333-213.333s95.733-213.333 213.333-213.333 213.333 95.733 213.333 213.333-95.733 213.333-213.333 213.333zM512 341.333c-70.667 0-128 57.333-128 128s57.333 128 128 128c70.667 0 128-57.333 128-128s-57.333-128-128-128z" />
<glyph unicode="&#xe91d;" glyph-name="check-circle" d="M938.667 594.4c-23.467 0-42.667-19.2-42.667-42.667v-39.733c0-211.733-172.267-383.733-384-383.733s-384 172.267-384 384c0 211.733 172.267 384 384 384 55.467 0 108.8-11.467 158.667-34.133 21.333-9.867 46.667-0.267 56.533 21.067s0.267 46.667-21.067 56.533c-61.067 27.733-126.4 41.867-193.867 41.867-258.667 0-469.333-210.667-469.333-469.333s210.667-469.333 469.333-469.333c258.667 0 469.067 210.4 469.333 469.067v39.733c-0.267 23.467-19.467 42.667-42.933 42.667zM1011.467 926.133c-16.533 16.533-43.733 16.533-60.267 0l-439.2-439.2-97.867 97.867c-16.533 16.533-43.733 16.533-60.267 0s-16.533-43.733 0-60.267l128-128c8.267-8.267 19.2-12.533 30.133-12.533s21.867 4.267 30.133 12.533l469.333 469.333c16.8 16.533 16.8 43.733 0 60.267z" />
<glyph unicode="&#xe91e;" glyph-name="check-square" d="M1011.467 926.133c-16.533 16.533-43.733 16.533-60.267 0l-439.2-439.2-97.867 97.867c-16.533 16.533-43.733 16.533-60.267 0s-16.533-43.733 0-60.267l128-128c8.267-8.267 19.2-12.533 30.133-12.533s21.867 4.267 30.133 12.533l469.333 469.333c16.8 16.533 16.8 43.733 0 60.267zM896 554.667c-23.467 0-42.667-19.2-42.667-42.667v-298.667c0-23.467-19.2-42.667-42.667-42.667h-597.333c-23.467 0-42.667 19.2-42.667 42.667v597.333c0 23.467 19.2 42.667 42.667 42.667h469.333c23.467 0 42.667 19.2 42.667 42.667s-19.2 42.667-42.667 42.667h-469.333c-70.667 0-128-57.333-128-128v-597.333c0-70.667 57.333-128 128-128h597.333c70.667 0 128 57.333 128 128v298.667c0 23.467-19.2 42.667-42.667 42.667z" />
<glyph unicode="&#xe91f;" glyph-name="check" d="M883.467 798.133c-16.533 16.533-43.733 16.533-60.267 0l-439.2-439.2-183.2 183.2c-16.533 16.533-43.733 16.533-60.267 0s-16.533-43.733 0-60.267l213.333-213.333c8.267-8.267 19.2-12.533 30.133-12.533s21.867 4.267 30.133 12.533l469.333 469.333c16.8 16.533 16.8 43.733 0 60.267z" />
<glyph unicode="&#xe920;" glyph-name="chevron-down" d="M798.133 670.133c-16.533 16.533-43.733 16.533-60.267 0l-225.867-225.867-225.867 225.867c-16.533 16.533-43.733 16.533-60.267 0s-16.533-43.733 0-60.267l256-256c8.267-8.267 19.2-12.533 30.133-12.533s21.867 4.267 30.133 12.533l256 256c16.8 16.533 16.8 43.733 0 60.267z" />
<glyph unicode="&#xe921;" glyph-name="chevron-left" d="M444.267 512l225.867 225.867c16.533 16.533 16.533 43.733 0 60.267s-43.733 16.533-60.267 0l-256-256c-16.533-16.533-16.533-43.733 0-60.267l256-256c8.267-8.267 19.2-12.533 30.133-12.533s21.867 4.267 30.133 12.533c16.533 16.533 16.533 43.733 0 60.267l-225.867 225.867z" />
<glyph unicode="&#xe922;" glyph-name="chevron-right" d="M670.133 542.133l-256 256c-16.533 16.533-43.733 16.533-60.267 0s-16.533-43.733 0-60.267l225.867-225.867-225.867-225.867c-16.533-16.533-16.533-43.733 0-60.267 8.267-8.267 19.2-12.533 30.133-12.533s21.867 4.267 30.133 12.533l256 256c16.8 16.533 16.8 43.733 0 60.267z" />
<glyph unicode="&#xe923;" glyph-name="chevron-up" d="M798.133 414.133l-256 256c-16.533 16.533-43.733 16.533-60.267 0l-256-256c-16.533-16.533-16.533-43.733 0-60.267s43.733-16.533 60.267 0l225.867 225.867 225.867-225.867c8.267-8.267 19.2-12.533 30.133-12.533s21.867 4.267 30.133 12.533c16.8 16.533 16.8 43.733 0 60.267z" />
<glyph unicode="&#xe924;" glyph-name="chrome" d="M944 695.733c-0.8 2.933-2.133 5.6-3.467 8-73.6 163.467-237.867 277.6-428.533 277.6-152.533 0-288.267-73.067-373.867-186.133-2.667-2.933-5.067-5.867-6.933-9.333-55.733-77.067-88.533-171.733-88.533-273.867 0-240 181.067-438.4 413.6-466.133 2.133-0.267 4.267-0.533 6.4-0.8 16.267-1.6 32.8-2.667 49.333-2.667 258.667 0 469.333 210.667 469.333 469.333 0 65.333-13.333 127.467-37.333 184zM512 896c132.8 0 250.133-67.733 319.2-170.667h-319.2c-88 0-163.467-53.333-196.267-129.6l-95.467 165.6c70.4 82.4 175.2 134.667 291.733 134.667zM640 512c0-22.4-5.867-43.2-15.733-61.6-0.533-0.8-1.067-1.6-1.6-2.4l-2.667-4.533c-22.667-35.733-62.667-59.467-108-59.467-46.133 0-86.933 24.8-109.333 61.6-0.533 0.8-0.8 1.6-1.333 2.4l-2.933 5.067c-9.067 17.6-14.4 37.6-14.4 58.933 0 70.667 57.333 128 128 128s128-57.333 128-128zM128 512c0 60.8 14.133 118.667 39.733 169.867l156.267-270.133c36-67.2 106.933-112.8 188.267-112.8 8.533 0 17.067 0.533 25.333 1.6l-95.733-165.867c-178.4 32.8-313.867 189.6-313.867 377.333zM537.067 128.8l156.267 271.2c20.267 32.533 32 70.933 32 112 0 48-16 92.267-42.667 128h191.467c14.133-40 21.867-83.2 21.867-128 0-203.2-158.933-370.133-358.933-383.2z" />
<glyph unicode="&#xe925;" glyph-name="circle" d="M512 981.333c-258.667 0-469.333-210.667-469.333-469.333s210.667-469.333 469.333-469.333 469.333 210.667 469.333 469.333-210.667 469.333-469.333 469.333zM512 128c-211.733 0-384 172.267-384 384s172.267 384 384 384c211.733 0 384-172.267 384-384s-172.267-384-384-384z" />
<glyph unicode="&#xe926;" glyph-name="clipboard" d="M768 896h-42.667c0 46.933-38.4 85.333-85.333 85.333h-256c-46.933 0-85.333-38.4-85.333-85.333h-42.667c-70.667 0-128-57.333-128-128v-597.333c0-70.667 57.333-128 128-128h512c70.667 0 128 57.333 128 128v597.333c0 70.667-57.333 128-128 128zM384 896h256v-85.333h-256v41.067c0 0.533 0 1.067 0 1.6s0 1.067 0 1.6v41.067c0 0 0 0 0 0zM810.667 170.667c0-23.467-19.2-42.667-42.667-42.667h-512c-23.467 0-42.667 19.2-42.667 42.667v597.333c0 23.467 19.2 42.667 42.667 42.667h42.667c0-46.933 38.4-85.333 85.333-85.333h256c46.933 0 85.333 38.4 85.333 85.333h42.667c23.467 0 42.667-19.2 42.667-42.667v-597.333z" />
<glyph unicode="&#xe927;" glyph-name="clock" d="M512 981.333c-258.667 0-469.333-210.667-469.333-469.333s210.667-469.333 469.333-469.333 469.333 210.667 469.333 469.333-210.667 469.333-469.333 469.333zM512 128c-211.733 0-384 172.267-384 384s172.267 384 384 384c211.733 0 384-172.267 384-384s-172.267-384-384-384zM554.667 529.6v238.4c0 23.467-19.2 42.667-42.667 42.667s-42.667-19.2-42.667-42.667v-256c0-11.2 4.533-22.133 12.533-30.133l128-128c8.267-8.267 19.2-12.533 30.133-12.533s21.867 4.267 30.133 12.533c16.533 16.533 16.533 43.733 0 60.267l-115.467 115.467z" />
<glyph unicode="&#xe928;" glyph-name="cloud-off" d="M410.933 810.667c124.8-11.467 230.133-101.333 262.133-224.267 4.8-18.933 21.867-32 41.333-32h54.133c94.133 0 170.667-76.533 170.667-170.667 0-23.2-4.533-46.133-13.333-66.133-9.333-21.6 0.533-46.667 22.133-56.267 5.6-2.4 11.2-3.467 17.067-3.467 16.533 0 32.267 9.6 39.2 25.6 13.333 30.667 20.533 65.333 20.533 100.267 0 141.067-114.933 256-256.267 256h-22.133c-22.667 64-61.067 120.533-112.8 164.8-60.8 52.267-134.667 83.467-214.4 90.667-23.467 2.133-44.267-15.2-46.4-38.667-2.667-22.933 14.667-43.733 38.133-45.867zM878.933 205.6c-3.733 6.4-9.067 11.733-15.2 15.2l-619.467 619.467c-0.533 0.533-0.8 1.067-1.333 1.333l-170.133 169.867c-16.533 16.533-43.733 16.533-60.267 0s-16.533-43.733 0-60.267l133.6-133.6c-38.933-29.867-72-66.667-97.333-108.533-35.467-59.467-54.4-127.467-54.4-197.067 0-211.733 172.267-384 384-384 2.133 0 4 0 6.133 0h383.467c20.533 0 40.8 2.4 60.267 7.2l122.667-122.667c8.267-8.267 19.2-12.533 30.133-12.533s21.867 4.267 30.133 12.533c16.533 16.533 16.533 43.733 0 60.267l-132.267 132.8zM384.267 213.333c-0.267 0-0.533 0-0.8 0-1.6 0-3.467 0-5.067 0-164.8 0-298.667 133.867-298.667 298.667 0 97.333 48 188.267 127.467 244.533l543.2-543.2h-366.133z" />
<glyph unicode="&#xe929;" glyph-name="cloud" d="M768 640h-22.4c-54.4 152.267-198.933 256-361.867 256-211.733 0-384-172.267-384-384s172.267-384 384-384h384.267c141.067 0 256 114.933 256 256s-114.933 256-256 256zM768 213.333h-384.267c-164.8 0-298.667 133.867-298.667 298.667s133.867 298.667 298.667 298.667c135.467 0 254.4-92.267 289.333-224.267 5.067-18.667 21.867-31.733 41.333-31.733h53.6c94.133 0 170.667-76.533 170.667-170.667s-76.533-170.667-170.667-170.667z" />
<glyph unicode="&#xe92a;" glyph-name="cog" d="M867.2 368c4.533 9.6 14.4 16 24.8 16h3.733c70.667 0 128 57.333 128 128s-57.333 128-128 128h-7.2c-9.333 0-17.6 4.533-22.667 12-0.533 2.933-1.6 5.6-2.667 8.267-1.6 3.467-2.4 7.467-2.4 11.467 0 7.2 2.667 14.133 7.733 19.2l2.4 2.4c24.267 24.267 37.6 56.267 37.6 90.667s-13.333 66.4-37.6 90.4c-24.267 24.267-56.267 37.6-90.667 37.6-34.133 0-66.4-13.333-90.667-37.6l-2.4-2.4c-5.067-5.067-12-7.733-19.2-7.733-3.733 0-7.733 0.8-10.933 2.133-0.533 0.267-1.067 0.533-1.6 0.533-9.867 4.533-16 14.4-16 24.8v4.267c0 70.667-57.333 128-128 128s-128-57.333-128-128v-7.2c0-9.333-4.533-17.6-12-22.667-2.933-0.533-5.6-1.6-8.267-2.667-3.467-1.6-7.467-2.4-11.467-2.4-7.2 0-14.133 2.667-19.2 7.733l-2.4 2.4c-24.267 24.267-56.267 37.6-90.667 37.6s-66.4-13.333-90.4-37.6c-23.733-24.267-37.067-56.267-37.067-90.667s13.333-66.4 37.6-90.667l2.4-2.4c5.067-5.067 7.733-12 7.733-19.2 0-3.733-0.8-7.733-2.133-10.933-0.533-1.067-1.067-2.4-1.333-3.733-4-10.133-13.6-17.067-24.8-17.333h-3.467c-70.667 0-128-57.333-128-128s57.333-128 128-128h7.2c11.2 0 20.8-6.667 25.6-17.067 0-0.267 0.267-0.533 0.267-0.8 1.333-3.2 2.133-6.933 2.133-10.4 0-7.2-2.667-14.133-7.733-19.2l-2.4-2.4c-24.267-24.267-37.6-56.267-37.6-90.667s13.333-66.4 37.6-90.4c24.267-24.267 56.267-37.6 90.667-37.6s66.4 13.333 90.4 37.6l2.4 2.4c5.067 5.067 12 7.733 19.2 7.733 3.733 0 7.733-0.8 10.933-2.133 1.067-0.533 2.4-1.067 3.733-1.333 10.133-4 17.067-13.6 17.333-24.8v-3.2c0-70.667 57.333-128 128-128s128 57.333 128 128v7.2c0 11.2 6.667 20.8 17.067 25.6 0.267 0 0.533 0.267 0.8 0.267 3.2 1.333 6.933 2.133 10.4 2.133 7.2 0 14.133-2.667 19.2-7.733l2.4-2.4c24.267-24.267 56.267-37.6 90.667-37.6s66.4 13.333 90.4 37.6c24.267 24.267 37.6 56.267 37.6 90.667 0 34.133-13.333 66.4-37.6 90.4l-2.4 2.4c-5.067 5.067-7.733 12-7.733 19.2 0 3.733 0.8 7.733 2.133 10.933 0.267 0.267 0.533 0.8 0.533 1.333zM788.8 401.6c-0.267-0.533-0.267-0.8-0.533-1.333-6.133-13.867-9.333-29.333-9.333-44.8 0-29.867 11.467-57.867 32.267-79.2 0 0 0.267-0.267 0.267-0.267l2.667-2.667c8-8 12.533-18.667 12.533-30.133s-4.533-22.133-12.533-30.133c-8-8-18.667-12.533-30.133-12.533s-22.133 4.533-30.133 12.533l-2.667 2.667c0 0-0.267 0.267-0.267 0.267-21.333 20.8-49.333 32.267-79.2 32.267-16.267 0-31.733-3.467-46.4-9.867-0.267-0.267-0.8-0.267-1.067-0.533-40.267-18.4-66.133-58.4-66.4-102.667v-7.2c0-23.467-19.2-42.667-42.667-42.667s-42.667 19.2-42.667 42.667v3.733c0 0.267 0 0.8 0 1.067-1.067 46.4-29.867 86.667-73.067 103.2-13.6 5.867-28.8 9.067-44.267 9.067-29.867 0-57.867-11.467-79.2-32.267 0 0-0.267-0.267-0.267-0.267l-2.667-2.667c-8-8-18.667-12.533-30.133-12.533s-22.133 4.533-30.133 12.533c-8 8-12.533 18.667-12.533 30.133s4.533 22.133 12.533 30.133l2.933 2.933c20.8 21.333 32.267 49.333 32.267 79.2 0 16-3.467 31.733-9.867 46.4-0.267 0.267-0.267 0.8-0.533 1.067-18.4 40.267-58.4 66.133-102.667 66.133h-6.933c-23.467 0-42.667 19.2-42.667 42.667s19.2 42.667 42.667 42.667h3.733c0.267 0 0.8 0 1.067 0 46.4 1.067 86.667 29.867 103.2 73.067 5.867 13.6 9.067 28.8 9.067 44.267 0 29.867-11.467 57.867-32.267 79.2 0 0-0.267 0.267-0.267 0.267l-2.667 2.667c-8 8-12.533 18.667-12.533 30.133s4.533 22.133 12.533 30.133c8 8 18.667 12.533 30.133 12.533s22.133-4.533 30.133-12.533l2.667-2.667c0 0 0.267-0.267 0.267-0.267 21.333-20.8 49.333-32.267 79.2-32.267 12.8 0 25.6 2.133 37.6 6.4 4 0.533 7.733 1.6 11.467 3.2 41.333 18.133 68 58.667 68.267 103.467v7.2c0 23.467 19.2 42.667 42.667 42.667s42.667-19.2 42.667-42.667v-4c0.267-44.8 26.667-85.333 67.733-103.2 0.267-0.267 0.8-0.267 1.067-0.533 13.867-6.133 29.333-9.333 44.8-9.333 29.867 0 57.867 11.467 79.2 32.267 0 0 0.267 0.267 0.267 0.267l2.667 2.667c8 8 18.667 12.533 30.133 12.533s22.133-4.533 30.133-12.533c8-8 12.533-18.667 12.533-30.133s-4.533-22.133-12.533-30.133l-2.667-2.667c0 0-0.267-0.267-0.267-0.267-20.8-21.333-32.267-49.333-32.267-79.2 0-12.8 2.133-25.6 6.4-37.6 0.533-4 1.6-7.733 3.2-11.467 18.133-41.333 58.667-68 103.467-68.267h7.2c23.467 0 42.667-19.2 42.667-42.667s-19.2-42.667-42.667-42.667h-4c-44.8 0-85.333-26.4-103.2-67.467zM512 682.667c-94.133 0-170.667-76.533-170.667-170.667s76.533-170.667 170.667-170.667c94.133 0 170.667 76.533 170.667 170.667s-76.533 170.667-170.667 170.667zM512 426.667c-46.933 0-85.333 38.4-85.333 85.333s38.4 85.333 85.333 85.333c46.933 0 85.333-38.4 85.333-85.333s-38.4-85.333-85.333-85.333z" />
<glyph unicode="&#xe92b;" glyph-name="command" d="M768 426.667h-85.333v170.667h85.333c94.133 0 170.667 76.533 170.667 170.667s-76.533 170.667-170.667 170.667-170.667-76.533-170.667-170.667v-85.333h-170.667v85.333c0 94.133-76.533 170.667-170.667 170.667s-170.667-76.533-170.667-170.667 76.533-170.667 170.667-170.667h85.333v-170.667h-85.333c-94.133 0-170.667-76.533-170.667-170.667s76.533-170.667 170.667-170.667 170.667 76.533 170.667 170.667v85.333h170.667v-85.333c0-94.133 76.533-170.667 170.667-170.667s170.667 76.533 170.667 170.667-76.533 170.667-170.667 170.667zM682.667 768c0 46.933 38.4 85.333 85.333 85.333s85.333-38.4 85.333-85.333-38.4-85.333-85.333-85.333h-85.333v85.333zM341.333 256c0-46.933-38.4-85.333-85.333-85.333s-85.333 38.4-85.333 85.333 38.4 85.333 85.333 85.333h85.333v-85.333zM341.333 682.667h-85.333c-46.933 0-85.333 38.4-85.333 85.333s38.4 85.333 85.333 85.333 85.333-38.4 85.333-85.333v-85.333zM597.333 426.667h-170.667v170.667h170.667v-170.667zM768 170.667c-46.933 0-85.333 38.4-85.333 85.333v85.333h85.333c46.933 0 85.333-38.4 85.333-85.333s-38.4-85.333-85.333-85.333z" />
<glyph unicode="&#xe92c;" glyph-name="comment-circle" d="M938.667 556c0 0.8 0 1.333 0 2.133-11.733 205.333-175.733 368.8-381.6 380.533-0.8 0-1.6 0-2.4 0h-22.133c-64.267 0-125.867-14.933-182.667-44-136.8-69.6-221.867-208-221.867-361.333v-1.067c0-57.333 12-113.6 35.2-164.267l-75.467-226.667c-5.067-15.467-1.067-32.267 10.4-43.733 8-8 18.933-12.533 30.133-12.533 4.533 0 9.333 0.8 13.6 2.4l224.533 76.267c51.733-23.467 108.8-36 166.133-36h1.067c153.333 0 291.733 85.067 361.333 221.6 28.8 56 44 119.2 44 182.667v1.333c-0.267 7.467-0.267 15.2-0.267 22.667zM853.333 532.267c0-50.667-11.733-98.933-34.667-144-54.933-108-164.267-175.2-285.333-175.2h-1.067c-50.667 0-98.933 11.733-143.733 34.667-10.4 5.333-22.4 6.133-33.333 2.4l-159.733-54.4 53.867 161.6c3.733 10.933 2.667 22.933-2.667 33.067-22.133 42.667-33.6 91.733-33.6 141.6v1.333c0 121.067 67.2 230.4 175.2 285.333 44.8 22.933 93.067 34.667 143.733 34.667h21.067c161.6-9.867 290.133-138.133 300-299.2 0-6.933 0-14.133 0-20.8v-1.067z" />
<glyph unicode="&#xe92d;" glyph-name="comment-square" d="M810.667 938.667h-597.333c-70.667 0-128-57.333-128-128v-682.667c0-17.333 10.4-32.8 26.4-39.467 5.333-2.133 10.933-3.2 16.267-3.2 11.2 0 22.133 4.267 30.133 12.533l158.133 158.133h494.4c70.667 0 128 57.333 128 128v426.667c0 70.667-57.333 128-128 128zM853.333 384c0-23.467-19.2-42.667-42.667-42.667h-512c-11.2 0-22.133-4.533-30.133-12.533l-97.867-97.867v579.733c0 23.467 19.2 42.667 42.667 42.667h597.333c23.467 0 42.667-19.2 42.667-42.667v-426.667z" />
<glyph unicode="&#xe92e;" glyph-name="cpu" d="M640 682.667h-256c-23.467 0-42.667-19.2-42.667-42.667v-256c0-23.467 19.2-42.667 42.667-42.667h256c23.467 0 42.667 19.2 42.667 42.667v256c0 23.467-19.2 42.667-42.667 42.667zM597.333 426.667h-170.667v170.667h170.667v-170.667zM981.333 469.333h-85.333v128h85.333c23.467 0 42.667 19.2 42.667 42.667s-19.2 42.667-42.667 42.667h-85.333v85.333c0 70.667-57.333 128-128 128h-85.333v85.333c0 23.467-19.2 42.667-42.667 42.667s-42.667-19.2-42.667-42.667v-85.333h-170.667v85.333c0 23.467-19.2 42.667-42.667 42.667s-42.667-19.2-42.667-42.667v-85.333h-85.333c-70.667 0-128-57.333-128-128v-85.333h-85.333c-23.467 0-42.667-19.2-42.667-42.667s19.2-42.667 42.667-42.667h85.333v-128h-85.333c-23.467 0-42.667-19.2-42.667-42.667s19.2-42.667 42.667-42.667h85.333v-128c0-70.667 57.333-128 128-128h85.333v-85.333c0-23.467 19.2-42.667 42.667-42.667s42.667 19.2 42.667 42.667v85.333h170.667v-85.333c0-23.467 19.2-42.667 42.667-42.667s42.667 19.2 42.667 42.667v85.333h85.333c70.667 0 128 57.333 128 128v128h85.333c23.467 0 42.667 19.2 42.667 42.667s-19.2 42.667-42.667 42.667zM810.667 256c0-23.467-19.2-42.667-42.667-42.667h-512c-23.467 0-42.667 19.2-42.667 42.667v512c0 23.467 19.2 42.667 42.667 42.667h512c23.467 0 42.667-19.2 42.667-42.667v-512z" />
<glyph unicode="&#xe92f;" glyph-name="crosshair" d="M512 981.333c-258.667 0-469.333-210.667-469.333-469.333s210.667-469.333 469.333-469.333 469.333 210.667 469.333 469.333-210.667 469.333-469.333 469.333zM554.667 130.4v125.6c0 23.467-19.2 42.667-42.667 42.667s-42.667-19.2-42.667-42.667v-125.6c-177.6 19.733-319.2 161.333-338.933 338.933h125.6c23.467 0 42.667 19.2 42.667 42.667s-19.2 42.667-42.667 42.667h-125.6c19.733 177.6 161.333 319.2 338.933 338.933v-125.6c0-23.467 19.2-42.667 42.667-42.667s42.667 19.2 42.667 42.667v125.6c177.6-19.733 319.2-161.333 338.933-338.933h-125.6c-23.467 0-42.667-19.2-42.667-42.667s19.2-42.667 42.667-42.667h125.6c-19.733-177.6-161.333-319.2-338.933-338.933z" />
<glyph unicode="&#xe930;" glyph-name="delete" d="M896 896h-554.667c-12.267 0-24-5.333-32-14.667l-298.667-341.333c-14.133-16-14.133-40 0-56.267l298.667-341.333c8-9.333 19.733-14.667 32-14.667h554.667c70.667 0 128 57.333 128 128v512.267c0 70.667-57.333 128-128 128zM938.667 256c0-23.467-19.2-42.667-42.667-42.667h-535.2l-261.333 298.667 261.333 298.667h535.2c23.467 0 42.667-19.2 42.667-42.667v-512zM798.133 670.133c-16.533 16.533-43.733 16.533-60.267 0l-97.867-97.867-97.867 97.867c-16.533 16.533-43.733 16.533-60.267 0s-16.533-43.733 0-60.267l97.867-97.867-97.867-97.867c-16.533-16.533-16.533-43.733 0-60.267 8.267-8.267 19.2-12.533 30.133-12.533s21.867 4.267 30.133 12.533l97.867 97.867 97.867-97.867c8.267-8.267 19.2-12.533 30.133-12.533s21.867 4.267 30.133 12.533c16.533 16.533 16.533 43.733 0 60.267l-97.867 97.867 97.867 97.867c16.8 16.533 16.8 43.733 0 60.267z" />
<glyph unicode="&#xe931;" glyph-name="disc" d="M512 981.333c-258.667 0-469.333-210.667-469.333-469.333s210.667-469.333 469.333-469.333 469.333 210.667 469.333 469.333-210.667 469.333-469.333 469.333zM512 128c-211.733 0-384 172.267-384 384s172.267 384 384 384c211.733 0 384-172.267 384-384s-172.267-384-384-384zM512 682.667c-94.133 0-170.667-76.533-170.667-170.667s76.533-170.667 170.667-170.667c94.133 0 170.667 76.533 170.667 170.667s-76.533 170.667-170.667 170.667zM512 426.667c-46.933 0-85.333 38.4-85.333 85.333s38.4 85.333 85.333 85.333c46.933 0 85.333-38.4 85.333-85.333s-38.4-85.333-85.333-85.333z" />
<glyph unicode="&#xe932;" glyph-name="download-cloud" d="M652.533 328.8l-97.867-97.867v281.067c0 23.467-19.2 42.667-42.667 42.667s-42.667-19.2-42.667-42.667v-281.067l-97.867 97.867c-16.533 16.533-43.733 16.533-60.267 0s-16.533-43.733 0-60.267l170.667-170.667c0.533-0.533 1.067-1.067 1.6-1.6 0 0 0 0 0 0s0.267-0.267 0.267-0.267c0 0 0 0 0.267-0.267 0 0 0 0 0.267-0.267 0 0 0.267-0.267 0.267-0.267s0 0 0 0 0.267-0.267 0.267-0.267c0 0 0 0 0 0 3.2-2.667 6.4-4.533 9.867-6.133 0 0 0 0 0.267 0 0 0 0 0 0.267 0 4.533-1.867 9.6-3.2 14.933-3.467 0 0 0 0 0 0 0.267 0 0.267 0 0.533 0 0 0 0 0 0 0s0.267 0 0.267 0c0 0 0.267 0 0.267 0s0.267 0 0.267 0 0.267 0 0.533 0 0.267 0 0.533 0c0 0 0.267 0 0.267 0s0.267 0 0.267 0c0 0 0.267 0 0.267 0s0 0 0 0c0.267 0 0.267 0 0.533 0 0 0 0 0 0 0 5.333 0.267 10.4 1.333 14.933 3.467 0 0 0 0 0 0s0.267 0 0.267 0c0 0 0.267 0 0.267 0s0 0 0 0c3.2 1.333 6.133 3.2 9.067 5.6 0 0 0 0 0 0s0.267 0.267 0.267 0.267c0 0 0 0 0 0s0.267 0.267 0.267 0.267c0 0 0 0 0.267 0.267 0 0 0 0 0.267 0.267 0 0 0.267 0.267 0.267 0.267s0 0 0 0c0.8 0.533 1.333 1.333 2.133 2.133l170.4 170.4c16.533 16.533 16.533 43.733 0 60.267-16 17.067-43.2 17.067-59.733 0.267zM768 682.667h-22.4c-54.4 152.533-198.933 256.533-362.133 256.533-211.733 0-384-172.267-384-384 0-94.133 34.4-184.533 96.8-254.933 15.733-17.6 42.667-19.2 60.267-3.467s19.2 42.667 3.467 60.267c-48.533 54.667-75.2 125.067-75.2 198.133 0 164.8 133.867 298.667 298.667 298.667 135.467 0 254.667-92.267 289.333-224.8 4.8-18.667 21.867-31.733 41.333-31.733h53.867c94.133 0 170.667-76.533 170.667-170.667 0-56-26.4-106.933-72.533-139.733-19.2-13.6-23.733-40.267-10.133-59.467 8.267-11.733 21.6-17.867 34.933-17.867 8.533 0 17.067 2.667 24.533 8 68 48.267 108.533 126.4 108.533 209.333 0.267 140.8-114.667 255.733-256 255.733z" />
<glyph unicode="&#xe933;" glyph-name="download" d="M896 341.333c-23.467 0-42.667-19.2-42.667-42.667v-128c0-23.467-19.2-42.667-42.667-42.667h-597.333c-23.467 0-42.667 19.2-42.667 42.667v128c0 23.467-19.2 42.667-42.667 42.667s-42.667-19.2-42.667-42.667v-128c0-70.667 57.333-128 128-128h597.333c70.667 0 128 57.333 128 128v128c0 23.467-19.2 42.667-42.667 42.667zM481.6 311.2c0.533-0.533 1.067-1.067 1.6-1.6 0 0 0 0 0 0s0.267-0.267 0.267-0.267c0 0 0 0 0.267-0.267 0 0 0 0 0.267-0.267 0 0 0.267-0.267 0.267-0.267s0 0 0 0 0.267-0.267 0.267-0.267c0 0 0 0 0 0 3.2-2.667 6.4-4.533 9.867-6.133 0 0 0 0 0.267 0 0 0 0 0 0.267 0 4.533-1.867 9.6-3.2 14.933-3.467 0 0 0 0 0 0 0.267 0 0.267 0 0.533 0 0 0 0 0 0 0s0.267 0 0.267 0c0 0 0.267 0 0.267 0s0.267 0 0.267 0 0.267 0 0.533 0 0.267 0 0.533 0c0 0 0.267 0 0.267 0s0.267 0 0.267 0c0 0 0.267 0 0.267 0s0 0 0 0c0.267 0 0.267 0 0.533 0 0 0 0 0 0 0 5.333 0.267 10.4 1.333 14.933 3.467 0 0 0 0 0 0s0.267 0 0.267 0c0 0 0.267 0 0.267 0s0 0 0 0c3.2 1.333 6.133 3.2 9.067 5.6 0 0 0 0 0 0s0.267 0.267 0.267 0.267c0 0 0 0 0 0s0.267 0.267 0.267 0.267c0 0 0 0 0.267 0.267 0 0 0 0 0.267 0.267 0 0 0.267 0.267 0.267 0.267s0 0 0 0c0.8 0.533 1.333 1.333 2.133 2.133l170.4 170.4c16.533 16.533 16.533 43.733 0 60.267s-43.733 16.533-60.267 0l-97.067-97.6v494.4c0 23.467-19.2 42.667-42.667 42.667s-42.667-19.2-42.667-42.667v-494.4l-97.867 97.867c-16.533 16.533-43.733 16.533-60.267 0s-16.533-43.733 0-60.267l170.4-170.667z" />
<glyph unicode="&#xe934;" glyph-name="droplet" d="M537.6 972.8c-15.2 11.467-36 11.467-51.2 0-14.667-10.933-358.4-272-358.4-546.133 0-211.733 172.267-384 384-384s384 172.267 384 384c0 274.133-343.733 535.2-358.4 546.133zM512 128c-164.8 0-298.667 133.867-298.667 298.667 0 192.533 222.133 393.6 298.667 457.333 76.533-63.733 298.667-264.8 298.667-457.333 0-164.8-133.867-298.667-298.667-298.667z" />
<glyph unicode="&#xe935;" glyph-name="edit" d="M853.333 441.067c-23.467 0-42.667-19.2-42.667-42.667v-227.733c0-23.467-19.2-42.667-42.667-42.667h-597.333c-23.467 0-42.667 19.2-42.667 42.667v597.333c0 23.467 19.2 42.667 42.667 42.667h227.733c23.467 0 42.667 19.2 42.667 42.667s-19.2 42.667-42.667 42.667h-227.733c-70.667 0-128-57.333-128-128v-597.333c0-70.667 57.333-128 128-128h597.333c70.667 0 128 57.333 128 128v227.733c0 23.733-19.2 42.667-42.667 42.667zM968.8 798.133l-170.667 170.667c-16.533 16.533-43.733 16.533-60.267 0l-426.667-426.667c-8-8-12.533-18.933-12.533-30.133v-170.667c0-23.467 19.2-42.667 42.667-42.667h170.667c11.2 0 22.133 4.533 30.133 12.533l426.667 426.667c16.8 16.533 16.8 43.733 0 60.267zM494.4 384h-110.4v110.4l384 384 110.4-110.4-384-384z" />
<glyph unicode="&#xe936;" glyph-name="external-link" d="M768 512c-23.467 0-42.667-19.2-42.667-42.667v-256c0-23.467-19.2-42.667-42.667-42.667h-469.333c-23.467 0-42.667 19.2-42.667 42.667v469.333c0 23.467 19.2 42.667 42.667 42.667h256c23.467 0 42.667 19.2 42.667 42.667s-19.2 42.667-42.667 42.667h-256c-70.667 0-128-57.333-128-128v-469.333c0-70.667 57.333-128 128-128h469.333c70.667 0 128 57.333 128 128v256c0 23.467-19.2 42.667-42.667 42.667zM938.667 897.6c0 0 0 0 0 0 0 0.267 0 0.267 0 0.533 0 0 0 0.267 0 0.267s0 0.267 0 0.267c0 0 0 0.267 0 0.267s0 0 0 0c-0.267 4.533-1.333 8.8-2.933 12.8 0 0 0 0 0 0.267 0 0 0 0 0 0.267 0 0 0 0.267-0.267 0.267 0 0 0 0 0 0-1.6 4-4 7.467-6.667 10.933 0 0 0 0 0 0s-0.267 0.267-0.267 0.267c0 0 0 0 0 0s-0.267 0.267-0.267 0.267-0.267 0.267-0.267 0.267 0 0 0 0.267c-1.067 1.067-1.867 2.133-2.933 2.933 0 0 0 0-0.267 0 0 0-0.267 0.267-0.267 0.267s-0.267 0-0.267 0.267c0 0 0 0-0.267 0 0 0-0.267 0.267-0.267 0.267s0 0 0 0c-3.2 2.933-6.933 5.067-10.933 6.667 0 0 0 0 0 0s-0.267 0-0.267 0c0 0 0 0-0.267 0 0 0 0 0-0.267 0-4 1.6-8.267 2.667-12.8 2.933 0 0 0 0 0 0s-0.267 0-0.267 0c0 0-0.267 0-0.267 0s-0.267 0-0.267 0c0 0-0.267 0-0.267 0s0 0-0.267 0c-0.533 0-1.067 0-1.6 0h-256c-23.467 0-42.667-19.2-42.667-42.667s19.2-42.667 42.667-42.667h153.067l-396.8-395.733c-16.533-16.533-16.533-43.733 0-60.267 8.267-8.267 19.2-12.533 30.133-12.533s21.867 4.267 30.133 12.533l396.533 396.533v-153.067c0-23.467 19.2-42.667 42.667-42.667s42.667 19.2 42.667 42.667v256c0 0.533 0 1.067 0 1.6z" />
<glyph unicode="&#xe937;" glyph-name="eye-off" d="M432.533 801.6c24.267 5.867 51.2 9.067 78.667 9.067h1.067c110.933 0 216.533-52.267 313.867-155.467 53.333-56.533 89.6-114.133 106.4-142.933-22.933-39.733-48.267-76-76.8-109.867-15.2-17.867-13.067-44.8 5.067-60 8-6.667 17.867-10.133 27.467-10.133 12 0 24.267 5.067 32.533 15.2 37.333 44.267 69.333 91.467 98.133 144.533 6.667 12.267 6.933 26.933 0.533 39.467-1.867 3.733-46.4 92-129.6 180.8-113.067 120-243.733 183.733-377.867 183.733h-1.067c-33.867 0-68-4-98.933-11.467-22.933-5.6-36.8-28.8-31.2-51.467 5.867-22.933 28.8-37.067 51.733-31.467zM1011.467 72.8l-215.467 215.467c-0.267 0.267-0.533 0.533-1.067 1.067l-722.133 722.133c-16.533 16.533-43.733 16.533-60.267 0s-16.533-43.733 0-60.267l182.4-182.4c-76.533-65.867-140.267-145.333-189.867-236.267-6.667-12.267-6.933-26.933-0.8-39.467 1.867-3.733 46.4-92 129.867-180.8 113.067-120.533 243.733-184.267 378.133-184.267 0.267 0 0.533 0 0.8 0 89.333 1.6 174.133 27.2 247.467 74.933l190.4-190.4c8.267-8.267 19.2-12.533 30.133-12.533s21.867 4.267 30.133 12.533c17.067 16.533 17.067 43.733 0.267 60.267zM427.733 535.733l108-108c-8.533-2.933-17.6-4.267-26.933-4.267-46.933 0-85.333 38.4-85.333 85.333 0 9.333 1.6 18.4 4.267 26.933zM512 213.333c-110.933 0-216.533 52.533-314.133 155.467-53.333 56.533-89.6 113.867-106.4 142.933 43.733 75.467 98.933 141.333 164 196.533l108.8-108.8c-16.8-26.933-26.133-58.4-26.133-90.667 0-94.133 76.533-170.667 170.667-170.667 32.267 0 63.733 9.333 90.667 26.133l99.2-99.2c-56.267-32.8-120-50.667-186.667-51.733z" />
<glyph unicode="&#xe938;" glyph-name="eye" d="M1019.467 531.2c-1.867 3.733-46.4 92-129.6 180.8-113.067 120.267-243.733 184-377.867 184s-264.8-63.733-377.867-184.267c-83.2-88.8-127.733-177.067-129.6-180.8-6.133-12-6.133-26.133 0-38.133 1.867-3.733 46.4-92 129.6-180.8 113.067-120.267 243.733-184 377.867-184s264.8 63.733 377.867 184.267c83.2 88.8 127.733 177.067 129.6 180.8 6.133 11.733 6.133 26.133 0 38.133zM826.133 368.8c-97.6-103.2-203.2-155.467-314.133-155.467s-216.533 52.267-314.133 155.467c-53.333 56.533-89.867 114.133-106.667 143.2 16.8 28.8 53.067 86.4 106.667 143.2 97.6 103.2 203.2 155.467 314.133 155.467s216.533-52.267 314.133-155.467c53.333-56.8 89.867-114.133 106.667-143.2-17.067-28.8-53.333-86.4-106.667-143.2zM512 682.667c-94.133 0-170.667-76.533-170.667-170.667s76.533-170.667 170.667-170.667c94.133 0 170.667 76.533 170.667 170.667s-76.533 170.667-170.667 170.667zM512 426.667c-46.933 0-85.333 38.4-85.333 85.333s38.4 85.333 85.333 85.333c46.933 0 85.333-38.4 85.333-85.333s-38.4-85.333-85.333-85.333z" />
<glyph unicode="&#xe939;" glyph-name="facebook" d="M768 725.333c23.467 0 42.667 19.2 42.667 42.667v170.667c0 23.467-19.2 42.667-42.667 42.667h-128c-141.067 0-256-114.933-256-256v-85.333h-85.333c-23.467 0-42.667-19.2-42.667-42.667v-170.667c0-23.467 19.2-42.667 42.667-42.667h85.333v-298.667c0-23.467 19.2-42.667 42.667-42.667h170.667c23.467 0 42.667 19.2 42.667 42.667v298.667h85.333c19.467 0 36.533 13.333 41.333 32.267l42.667 170.667c3.2 12.8 0.267 26.133-7.733 36.533s-20.533 16.533-33.6 16.533h-128v85.333h128zM597.333 554.667h116l-21.333-85.333h-94.667c-23.467 0-42.667-19.2-42.667-42.667v-298.667h-85.333v298.667c0 23.467-19.2 42.667-42.667 42.667h-85.333v85.333h85.333c23.467 0 42.667 19.2 42.667 42.667v128c0 94.133 76.533 170.667 170.667 170.667h85.333v-85.333h-85.333c-46.933 0-85.333-38.4-85.333-85.333v-128c0-23.467 19.2-42.667 42.667-42.667z" />
<glyph unicode="&#xe93a;" glyph-name="fast-forward" d="M964.8 545.6l-384 298.667c-12.8 10.133-30.4 11.733-45.067 4.533s-24-22.133-24-38.4v-597.333c0-16.267 9.333-31.2 24-38.4 5.867-2.933 12.267-4.267 18.667-4.267 9.333 0 18.667 2.933 26.133 9.067l384 298.667c10.4 8 16.533 20.533 16.533 33.6s-5.867 25.867-16.267 33.867zM597.333 300.533v422.933l271.733-211.467-271.733-211.467zM495.467 545.6l-384 298.667c-12.8 10.133-30.133 12-44.8 4.8s-24-22.133-24-38.4v-597.333c0-16.267 9.333-31.2 24-38.4 5.867-2.933 12.267-4.267 18.667-4.267 9.333 0 18.667 2.933 26.133 9.067l384 298.667c10.4 8 16.533 20.533 16.533 33.6s-6.133 25.6-16.533 33.6zM128 300.533v422.933l271.733-211.467-271.733-211.467z" />
<glyph unicode="&#xe93b;" glyph-name="feather" d="M682.4 981.6c-79.733 0-154.933-31.2-211.2-87.467l-288-288c-8-8-12.533-18.933-12.533-30.133v-345.067l-115.467-115.467c-16.533-16.533-16.533-43.733 0-60.267 8.267-8.267 19.2-12.533 30.133-12.533s21.867 4.267 30.133 12.533l115.467 115.467h345.067c11.467 0 22.133 4.533 30.133 12.533l287.467 288.533c56.533 56.533 87.467 131.467 87.467 211.2 0.267 164.8-133.867 298.667-298.667 298.667zM558.4 256h-241.867l85.333 85.333h241.6l-85.067-85.333zM833.333 532c0 0 0 0 0 0l-105.067-105.333c-1.067 0-1.867 0-2.933 0h-238.4l225.867 225.867c16.533 16.533 16.533 43.733 0 60.267s-43.733 16.533-60.267 0l-396.533-396.533v241.867l275.467 275.733c40.267 40.267 93.867 62.4 150.933 62.4 117.6 0 213.6-95.733 213.6-213.6 0-56.8-22.4-110.4-62.667-150.667z" />
<glyph unicode="&#xe93c;" glyph-name="file" d="M896 640.533c0 0.267 0 0.267 0 0.533 0 0 0 0 0 0-0.267 11.467-5.067 21.6-12.533 29.067l-298.667 298.667c0 0-0.267 0.267-0.267 0.267s0 0 0 0-0.267 0.267-0.267 0.267c0 0 0 0 0 0s-0.267 0.267-0.267 0.267c0 0 0 0 0 0s-0.267 0.267-0.267 0.267c0 0 0 0 0 0-7.2 6.667-17.067 10.667-27.467 10.933 0 0 0 0 0 0-0.267 0-0.267 0-0.533 0s-0.267 0-0.533 0h-299.2c-70.667 0-128-57.333-128-128v-682.667c0-70.667 57.333-128 128-128h512c70.667 0 128 57.333 128 128v469.867c0 0.267 0 0.267 0 0.533zM597.333 835.733l153.067-153.067h-153.067v153.067zM768 128h-512c-23.467 0-42.667 19.2-42.667 42.667v682.667c0 23.467 19.2 42.667 42.667 42.667h256v-256c0-23.467 19.2-42.667 42.667-42.667h256v-426.667c0-23.467-19.2-42.667-42.667-42.667z" />
<glyph unicode="&#xe93d;" glyph-name="filter" d="M977.333 913.867c-6.933 15.2-22.133 24.8-38.667 24.8h-853.333c-16.533 0-31.733-9.6-38.667-24.8s-4.533-32.8 6.133-45.6l331.2-391.467v-263.467c0-16.267 9.067-30.933 23.467-38.133l170.667-85.333c6.133-2.933 12.533-4.533 19.2-4.533 7.733 0 15.467 2.133 22.4 6.4 12.533 7.733 20.267 21.6 20.267 36.267v348.8l331.2 391.733c10.667 12.533 13.067 30.4 6.133 45.333zM564.8 520c-6.4-7.733-10.133-17.333-10.133-27.467v-295.467l-85.333 42.667v252.8c0 10.133-3.467 19.733-10.133 27.467l-281.867 333.333h669.333l-281.867-333.333z" />
<glyph unicode="&#xe93e;" glyph-name="flag" d="M869.333 937.067c-16.533 6.133-34.133 2.667-45.6-10.4-13.333-10.933-58.933-30.667-140.8-30.667-55.733 0-104 19.2-154.933 39.733-56.267 22.4-114.4 45.6-186.667 45.6-58.667 0-108.8-8.267-149.067-24.267-32.533-13.067-47.733-26.933-51.733-30.933-8-8-12.533-18.933-12.533-30.133v-810.667c0-23.467 19.2-42.667 42.667-42.667s42.667 19.2 42.667 42.667v276c21.333 10.4 63.467 22.667 128 22.667 55.733 0 104-19.2 154.933-39.733 56.267-22.4 114.4-45.6 186.4-45.6 58.667 0 108.8 8.267 149.067 24.267 32.267 12.8 47.733 26.933 51.733 30.667 8 8 12.533 18.933 12.533 30.133v512.267c0 17.867-10.133 34.933-26.667 41.067zM810.667 406.667c-21.333-10.4-63.467-22.667-128-22.667-55.733 0-104 19.2-154.933 39.733-56.267 22.4-114.4 45.6-186.4 45.6-48.8 0-91.733-5.6-128-16.8v420.8c21.333 10.4 63.467 22.667 128 22.667 55.733 0 104-19.2 154.933-39.733 56-22.4 114.133-45.6 186.4-45.6 48.8 0 91.733 5.6 128 16.8v-420.8z" />
<glyph unicode="&#xe93f;" glyph-name="folder" d="M853.333 810.667h-361.067l-72.533 109.067c-8 12-21.333 18.933-35.467 18.933h-213.6c-70.667 0-128-57.333-128-128v-597.333c0-70.667 57.333-128 128-128h682.667c70.667 0 128 57.333 128 128v469.333c0 70.667-57.333 128-128 128zM896 213.333c0-23.467-19.2-42.667-42.667-42.667h-682.667c-23.467 0-42.667 19.2-42.667 42.667v597.333c0 23.467 19.2 42.667 42.667 42.667h190.4l72.533-109.067c8-12 21.333-18.933 35.467-18.933h384c23.467 0 42.667-19.2 42.667-42.667v-469.333z" />
<glyph unicode="&#xe940;" glyph-name="globe" d="M981.333 512c0 256.267-206.667 465.333-462.133 469.333-4.533 0.8-9.067 0.8-13.6 0-255.733-3.467-462.933-212.533-462.933-469.333 0-256.267 206.667-465.333 462.133-469.333 2.133-0.267 4.533-0.533 6.667-0.533v0c2.133 0 4.533 0.267 6.667 0.533 256 3.467 463.2 212.533 463.2 469.333zM893.6 554.667h-170.4c-9.6 117.867-48.8 231.2-113.867 328.8 151.467-39.733 266.667-169.6 284.267-328.8zM511.733 151.2c-71.2 92-114.667 202.4-125.333 318.133h250.933c-10.667-116.267-54.4-226.667-125.6-318.133zM386.667 554.667c10.933 116 54.4 226.4 125.6 317.867 71.2-91.733 114.933-201.867 125.6-317.867h-251.2zM414.933 883.467c-65.067-97.6-104.267-210.933-114.133-328.8h-170.4c17.6 159.2 133.067 289.333 284.533 328.8zM130.4 469.333h170.4c9.6-117.6 48.8-230.667 113.6-328.8-151.2 39.733-266.4 169.867-284 328.8zM609.067 140.533c65.067 97.6 104.267 210.933 114.133 328.8h170.4c-17.6-159.2-133.067-289.333-284.533-328.8z" />
<glyph unicode="&#xe941;" glyph-name="grid" d="M384 938.667h-213.333c-46.933 0-85.333-38.4-85.333-85.333v-213.333c0-46.933 38.4-85.333 85.333-85.333h213.333c46.933 0 85.333 38.4 85.333 85.333v213.333c0 46.933-38.4 85.333-85.333 85.333zM384 640h-213.333v213.333c0 0 0 0 0 0h213.333v-213.333zM853.333 938.667h-213.333c-46.933 0-85.333-38.4-85.333-85.333v-213.333c0-46.933 38.4-85.333 85.333-85.333h213.333c46.933 0 85.333 38.4 85.333 85.333v213.333c0 46.933-38.4 85.333-85.333 85.333zM853.333 640h-213.333v213.333c0 0 0 0 0 0h213.333v-213.333zM853.333 469.333h-213.333c-46.933 0-85.333-38.4-85.333-85.333v-213.333c0-46.933 38.4-85.333 85.333-85.333h213.333c46.933 0 85.333 38.4 85.333 85.333v213.333c0 46.933-38.4 85.333-85.333 85.333zM853.333 170.667h-213.333v213.333c0 0 0 0 0 0h213.333v-213.333zM384 469.333h-213.333c-46.933 0-85.333-38.4-85.333-85.333v-213.333c0-46.933 38.4-85.333 85.333-85.333h213.333c46.933 0 85.333 38.4 85.333 85.333v213.333c0 46.933-38.4 85.333-85.333 85.333zM384 170.667h-213.333v213.333c0 0 0 0 0 0h213.333v-213.333z" />
<glyph unicode="&#xe942;" glyph-name="hash" d="M853.333 426.667h-180l18.933 170.667h161.067c23.467 0 42.667 19.2 42.667 42.667s-19.2 42.667-42.667 42.667h-151.467l23.2 208.533c2.667 23.467-14.4 44.533-37.6 47.2-23.467 2.667-44.533-14.4-47.2-37.6l-24.267-218.133h-170.133l23.2 208.533c2.667 23.467-14.4 44.533-37.6 47.2-23.467 2.667-44.533-14.4-47.2-37.6l-24.267-218.133h-189.333c-23.467 0-42.667-19.2-42.667-42.667s19.2-42.667 42.667-42.667h180l-18.933-170.667h-161.067c-23.467 0-42.667-19.2-42.667-42.667s19.2-42.667 42.667-42.667h151.467l-23.2-208.533c-2.667-23.467 14.4-44.533 37.6-47.2 1.6-0.267 3.2-0.267 4.8-0.267 21.333 0 40 16.267 42.4 37.867l24.267 218.133h170.133l-23.2-208.533c-2.667-23.467 14.4-44.533 37.6-47.2 1.6-0.267 3.2-0.267 4.8-0.267 21.333 0 40 16.267 42.4 37.867l24.267 218.133h189.333c23.467 0 42.667 19.2 42.667 42.667s-19.2 42.667-42.667 42.667zM417.333 426.667l18.933 170.667h170.133l-18.933-170.667h-170.133z" />
<glyph unicode="&#xe943;" glyph-name="headphones" d="M512 938.667c-235.2 0-426.667-191.467-426.667-426.667v-298.667c0-70.667 57.333-128 128-128h42.667c70.667 0 128 57.333 128 128v128c0 70.667-57.333 128-128 128h-85.333v42.667c0 188.267 153.067 341.333 341.333 341.333s341.333-153.067 341.333-341.333v-42.667h-85.333c-70.667 0-128-57.333-128-128v-128c0-70.667 57.333-128 128-128h42.667c70.667 0 128 57.333 128 128v298.667c0 235.2-191.467 426.667-426.667 426.667zM256 384c23.467 0 42.667-19.2 42.667-42.667v-128c0-23.467-19.2-42.667-42.667-42.667h-42.667c-23.467 0-42.667 19.2-42.667 42.667v170.667h85.333zM853.333 213.333c0-23.467-19.2-42.667-42.667-42.667h-42.667c-23.467 0-42.667 19.2-42.667 42.667v128c0 23.467 19.2 42.667 42.667 42.667h85.333v-170.667z" />
<glyph unicode="&#xe944;" glyph-name="heart" d="M919.467 857.6c-52.533 52.267-122.133 81.067-196.267 81.067s-143.733-28.8-196.267-81.333l-14.933-14.933-14.933 14.933c-52.533 52.533-122.133 81.333-196.267 81.333-153.067 0-277.333-124.533-277.333-277.333 0-74.133 28.8-143.733 81.333-196.267l377.067-377.067c8.267-8.267 19.2-12.533 30.133-12.533s21.867 4.267 30.133 12.533l377.067 377.067c52.533 52.267 81.333 122.133 81.333 196.267s-28.8 143.733-81.067 196.267zM858.933 525.6l-346.933-347.2-346.933 347.2c-36.267 36.267-56.267 84.533-56.267 135.733 0 105.867 86.133 192 192 192 51.2 0 99.467-20 135.733-56.267l45.333-45.333c8-8 18.933-12.533 30.133-12.533s22.133 4.533 30.133 12.533l45.333 45.333c36.267 36.267 84.533 56.267 135.733 56.267s99.467-20 135.733-56.267c0 0 0 0 0 0 36.267-36.267 56.267-84.533 56.267-135.733s-20-99.467-56.267-135.733z" />
<glyph unicode="&#xe945;" glyph-name="home" d="M922.133 673.6l-384 298.667c-15.467 12-37.067 12-52.267 0l-384-298.667c-10.4-8-16.533-20.533-16.533-33.6v-469.333c0-70.667 57.333-128 128-128h597.333c70.667 0 128 57.333 128 128v469.333c0 13.067-6.133 25.6-16.533 33.6zM597.333 128h-170.667v341.333h170.667v-341.333zM853.333 170.667c0-23.467-19.2-42.667-42.667-42.667h-128v384c0 23.467-19.2 42.667-42.667 42.667h-256c-23.467 0-42.667-19.2-42.667-42.667v-384h-128c-23.467 0-42.667 19.2-42.667 42.667v448.533l341.333 265.6 341.333-265.6v-448.533z" />
<glyph unicode="&#xe946;" glyph-name="image" d="M362.667 554.667c58.933 0 106.667 47.733 106.667 106.667s-47.733 106.667-106.667 106.667-106.667-47.733-106.667-106.667 47.733-106.667 106.667-106.667zM362.667 682.667c11.733 0 21.333-9.6 21.333-21.333s-9.6-21.333-21.333-21.333-21.333 9.6-21.333 21.333 9.6 21.333 21.333 21.333zM938.667 384v426.667c0 70.667-57.333 128-128 128h-597.333c-70.667 0-128-57.333-128-128v-597.333c0-70.4 57.067-127.733 127.467-128 0.267 0 0.267 0 0.533 0h597.333c70.667 0 128 57.333 128 128v170.667c0 0 0 0 0 0zM170.667 810.667c0 23.467 19.2 42.667 42.667 42.667h597.333c23.467 0 42.667-19.2 42.667-42.667v-323.733l-140.533 140.533c-16.533 16.533-43.733 16.533-60.267 0l-454.133-454.133c-16.267 6.133-27.733 21.6-27.733 40v597.333zM810.667 170.667h-494.4l366.4 366.4 170.667-170.667v-153.067c0-23.467-19.2-42.667-42.667-42.667z" />
<glyph unicode="&#xe947;" glyph-name="inbox" d="M977.333 487.467l-147.733 332.533c-20.8 46.133-66.667 76-117.067 76h-401.067c-50.133 0-96-29.6-116.8-75.2-0.267-0.533-0.533-1.067-0.533-1.6l-147.467-331.733c-2.667-5.6-4-11.733-4-18.133v-213.333c0-70.667 57.333-128 128-128h682.667c70.667 0 128 57.333 128 128v213.333c0 6.4-1.333 12.533-4 18.133zM272.267 785.333c0.267 0.267 0.267 0.533 0.533 0.8 6.933 14.933 22.133 24.533 38.667 24.533h401.067c17.067 0 32-9.867 38.933-25.333l121.6-273.333h-190.4c-14.133 0-27.467-7.2-35.467-18.933l-72.8-109.067h-125.067l-72.533 109.067c-8 12-21.333 18.933-35.467 18.933h-190.4l121.333 273.333zM853.333 213.333h-682.667c-23.467 0-42.667 19.2-42.667 42.667v170.667h190.4l72.533-109.067c8-12 21.333-18.933 35.467-18.933h170.667c14.133 0 27.467 7.2 35.467 18.933l72.533 109.067h190.933v-170.667c0-23.467-19.2-42.667-42.667-42.667z" />
<glyph unicode="&#xe948;" glyph-name="info" d="M512 981.333c-258.667 0-469.333-210.667-469.333-469.333s210.667-469.333 469.333-469.333 469.333 210.667 469.333 469.333-210.667 469.333-469.333 469.333zM512 128c-211.733 0-384 172.267-384 384s172.267 384 384 384c211.733 0 384-172.267 384-384s-172.267-384-384-384zM512 554.667c-23.467 0-42.667-19.2-42.667-42.667v-170.667c0-23.467 19.2-42.667 42.667-42.667s42.667 19.2 42.667 42.667v170.667c0 23.467-19.2 42.667-42.667 42.667zM512 725.333c-11.2 0-22.133-4.533-30.133-12.533s-12.533-18.933-12.533-30.133 4.533-22.133 12.533-30.133c8-8 18.933-12.533 30.133-12.533s22.133 4.533 30.133 12.533c8 8 12.533 18.933 12.533 30.133s-4.533 22.133-12.533 30.133c-8 8-18.933 12.533-30.133 12.533z" />
<glyph unicode="&#xe949;" glyph-name="instagram" d="M725.333 981.333h-426.667c-141.067 0-256-114.933-256-256v-426.667c0-141.067 114.933-256 256-256h426.667c141.067 0 256 114.933 256 256v426.667c0 141.067-114.933 256-256 256zM896 298.667c0-94.133-76.533-170.667-170.667-170.667h-426.667c-94.133 0-170.667 76.533-170.667 170.667v426.667c0 94.133 76.533 170.667 170.667 170.667h426.667c94.133 0 170.667-76.533 170.667-170.667v-426.667zM724.8 545.067c0 0.533 0 0.8-0.267 1.333-6.933 45.067-27.733 86.133-60 118.4s-73.333 53.067-118.4 60c-10.667 1.6-21.6 2.4-32.533 2.4-117.6 0-213.333-95.733-213.333-213.333s95.733-213.333 213.333-213.333c117.6 0 213.333 95.733 213.333 213.333 0 10.667-0.8 21.333-2.133 30.933v0.267zM513.867 385.867c-70.667 0-128 57.333-128 128s57.333 128 128 128c6.667 0 13.067-0.533 19.467-1.6 54.4-8.267 98.4-52 106.933-106.4v-0.267c0-0.533 0-0.8 0.267-1.333 0.8-5.6 1.333-12 1.333-18.4 0-70.667-57.333-128-128-128zM746.667 789.333c-11.2 0-22.133-4.533-30.133-12.533s-12.533-18.933-12.533-30.133 4.533-22.133 12.533-30.133c8-8 18.933-12.533 30.133-12.533s22.133 4.533 30.133 12.533c8 8 12.533 18.933 12.533 30.133s-4.533 22.133-12.533 30.133c-8 8-18.933 12.533-30.133 12.533z" />
<glyph unicode="&#xe94a;" glyph-name="layers" d="M66.133 687.2l426.667-213.333c6.133-2.933 12.533-4.533 19.2-4.533s13.067 1.6 19.2 4.533l426.667 213.333c14.4 7.2 23.467 22.133 23.467 38.133s-9.067 30.933-23.467 38.133l-426.667 213.333c-12 6.133-26.133 6.133-38.133 0l-426.667-213.333c-14.4-7.2-23.467-22.133-23.467-38.133s8.8-30.933 23.2-38.133zM512 890.933l331.2-165.6-331.2-165.6-331.2 165.6 331.2 165.6zM919.467 336.8l-407.467-203.733-407.467 203.733c-21.067 10.667-46.667 1.867-57.333-19.2s-1.867-46.667 19.2-57.333l426.667-213.333c6.133-2.933 12.533-4.533 19.2-4.533s13.067 1.6 19.2 4.533l426.667 213.333c21.067 10.667 29.6 36.267 19.2 57.333-10.933 21.333-36.533 29.867-57.867 19.2zM66.133 473.867l426.667-213.333c6.133-2.933 12.533-4.533 19.2-4.533s13.067 1.6 19.2 4.533l426.667 213.333c21.067 10.667 29.6 36.267 19.2 57.333-10.667 21.067-36.267 29.6-57.333 19.2l-407.733-204-407.467 203.733c-21.067 10.667-46.667 1.867-57.333-19.2-10.667-20.8-2.133-46.667 18.933-57.067z" />
<glyph unicode="&#xe94b;" glyph-name="layout" d="M810.667 938.667h-597.333c-70.667 0-128-57.333-128-128v-597.333c0-70.667 57.333-128 128-128h597.333c70.667 0 128 57.333 128 128v597.333c0 70.667-57.333 128-128 128zM213.333 853.333h597.333c23.467 0 42.667-19.2 42.667-42.667v-128h-682.667v128c0 23.467 19.2 42.667 42.667 42.667zM170.667 213.333v384h170.667v-426.667h-128c-23.467 0-42.667 19.2-42.667 42.667zM810.667 170.667h-384v426.667h426.667v-384c0-23.467-19.2-42.667-42.667-42.667z" />
<glyph unicode="&#xe94c;" glyph-name="life-buoy" d="M846.4 182.933c83.467 84.8 134.933 201.067 134.933 329.067s-51.467 244.267-134.933 329.067c-0.8 1.067-1.6 1.867-2.667 2.933-0.8 0.8-1.867 1.867-2.933 2.667-84.533 83.2-200.8 134.667-328.8 134.667s-244.267-51.467-329.067-134.933c-1.067-0.8-1.867-1.6-2.933-2.667-0.8-0.8-1.867-1.867-2.667-2.933-83.2-84.533-134.667-200.8-134.667-328.8s51.467-244.267 134.933-329.067c0.8-1.067 1.6-1.867 2.667-2.933 0.8-0.8 1.867-1.867 2.933-2.667 84.533-83.2 200.8-134.667 328.8-134.667s244.267 51.467 329.067 134.933c1.067 0.8 1.867 1.6 2.933 2.667 0.8 0.8 1.6 1.867 2.4 2.667zM812 272.533l-121.867 121.867c22.4 33.867 35.467 74.133 35.467 117.6s-13.067 83.733-35.467 117.6l121.867 121.867c52.533-65.6 84-149.067 84-239.467s-31.467-173.867-84-239.467zM384 512c0 70.667 57.333 128 128 128s128-57.333 128-128c0-70.667-57.333-128-128-128s-128 57.333-128 128zM751.467 812l-121.867-121.867c-33.867 22.4-74.133 35.467-117.6 35.467s-83.733-13.067-117.6-35.467l-121.867 121.867c65.6 52.533 149.067 84 239.467 84s173.867-31.467 239.467-84zM212 751.467l121.867-121.867c-22.4-33.867-35.467-74.133-35.467-117.6s13.067-83.733 35.467-117.6l-121.867-121.867c-52.533 65.6-84 149.067-84 239.467s31.467 173.867 84 239.467zM272.533 212l121.867 121.867c33.867-22.4 74.133-35.467 117.6-35.467s83.733 13.067 117.6 35.467l121.867-121.867c-65.6-52.533-149.067-84-239.467-84s-173.867 31.467-239.467 84z" />
<glyph unicode="&#xe94d;" glyph-name="loader" d="M512 981.333c-23.467 0-42.667-19.2-42.667-42.667v-170.667c0-23.467 19.2-42.667 42.667-42.667s42.667 19.2 42.667 42.667v170.667c0 23.467-19.2 42.667-42.667 42.667zM512 298.667c-23.467 0-42.667-19.2-42.667-42.667v-170.667c0-23.467 19.2-42.667 42.667-42.667s42.667 19.2 42.667 42.667v170.667c0 23.467-19.2 42.667-42.667 42.667zM240.533 843.733c-16.533 16.533-43.733 16.533-60.267 0s-16.533-43.733 0-60.267l120.8-120.8c8.267-8.267 19.2-12.533 30.133-12.533s21.867 4.267 30.133 12.533c16.533 16.533 16.533 43.733 0 60.267l-120.8 120.8zM723.2 361.333c-16.533 16.533-43.733 16.533-60.267 0s-16.533-43.733 0-60.267l120.8-120.8c8.267-8.267 19.2-12.533 30.133-12.533s21.867 4.267 30.133 12.533c16.533 16.533 16.533 43.733 0 60.267l-120.8 120.8zM298.667 512c0 23.467-19.2 42.667-42.667 42.667h-170.667c-23.467 0-42.667-19.2-42.667-42.667s19.2-42.667 42.667-42.667h170.667c23.467 0 42.667 19.2 42.667 42.667zM938.667 554.667h-170.667c-23.467 0-42.667-19.2-42.667-42.667s19.2-42.667 42.667-42.667h170.667c23.467 0 42.667 19.2 42.667 42.667s-19.2 42.667-42.667 42.667zM300.8 361.333l-120.8-120.8c-16.533-16.533-16.533-43.733 0-60.267 8.267-8.267 19.2-12.533 30.133-12.533s21.867 4.267 30.133 12.533l120.8 120.8c16.533 16.533 16.533 43.733 0 60.267s-43.467 16.533-60.267 0zM692.8 650.133c10.933 0 21.867 4.267 30.133 12.533l120.8 120.8c16.533 16.533 16.533 43.733 0 60.267s-43.733 16.533-60.267 0l-120.8-120.8c-16.533-16.533-16.533-43.733 0-60.267 8.533-8.267 19.2-12.533 30.133-12.533z" />
<glyph unicode="&#xe94e;" glyph-name="location" d="M968.8 968.8c-12.533 12.533-31.467 16-47.733 8.8l-853.333-384c-16.8-7.467-26.933-25.067-25.067-43.2 1.867-18.4 15.2-33.333 33.067-37.333l357.6-79.467 79.467-357.6c4-17.867 18.933-31.2 37.333-33.067 1.333-0.267 2.933-0.267 4.267-0.267 16.533 0 32 9.867 38.933 25.067l384 853.333c7.467 16.267 4 35.2-8.533 47.733zM568.533 220l-57.6 258.667c-3.467 16.267-16.267 28.8-32.267 32.267l-258.667 57.6 633.6 285.067-285.067-633.6z" />
<glyph unicode="&#xe94f;" glyph-name="lock" d="M810.667 597.333h-42.667v128c0 141.067-114.933 256-256 256s-256-114.933-256-256v-128h-42.667c-70.667 0-128-57.333-128-128v-298.667c0-70.667 57.333-128 128-128h597.333c70.667 0 128 57.333 128 128v298.667c0 70.667-57.333 128-128 128zM341.333 725.333c0 94.133 76.533 170.667 170.667 170.667s170.667-76.533 170.667-170.667v-128h-341.333v128zM853.333 170.667c0-23.467-19.2-42.667-42.667-42.667h-597.333c-23.467 0-42.667 19.2-42.667 42.667v298.667c0 23.467 19.2 42.667 42.667 42.667h597.333c23.467 0 42.667-19.2 42.667-42.667v-298.667z" />
<glyph unicode="&#xe950;" glyph-name="mail" d="M981.333 768.8c-0.533 70.133-57.6 127.2-128 127.2h-682.667c-70.4 0-127.467-56.8-128-127.2 0-0.533 0-0.8 0-1.333v-511.467c0-70.667 57.333-128 128-128h682.667c70.667 0 128 57.333 128 128v511.467c0 0.533 0 1.067 0 1.333zM170.667 810.667h682.667c16.8 0 31.2-9.6 38.133-23.733l-379.467-265.6-379.467 265.6c6.933 14.133 21.333 23.733 38.133 23.733zM853.333 213.333h-682.667c-23.467 0-42.667 19.2-42.667 42.667v430.133l359.467-251.733c7.467-5.067 16-7.733 24.533-7.733s17.067 2.667 24.533 7.733l359.467 251.733v-430.133c0-23.467-19.2-42.667-42.667-42.667z" />
<glyph unicode="&#xe951;" glyph-name="map-pin" d="M512 1024c-235.2 0-426.667-191.467-426.667-426.667 0-75.467 21.867-153.867 65.333-233.067 33.6-61.6 80.267-124 138.4-185.6 98.133-103.733 195.2-168.8 199.2-171.467 7.2-4.8 15.467-7.2 23.733-7.2s16.533 2.4 23.733 7.2c4 2.667 101.067 67.733 199.2 171.467 58.4 61.6 104.8 124 138.4 185.6 43.2 79.2 65.333 157.867 65.333 233.067 0 235.2-191.467 426.667-426.667 426.667zM512 95.2c-81.067 60-341.333 271.2-341.333 502.133 0 188.267 153.067 341.333 341.333 341.333s341.333-153.067 341.333-341.333c0-230.933-260.533-442.133-341.333-502.133zM512 768c-94.133 0-170.667-76.533-170.667-170.667s76.533-170.667 170.667-170.667c94.133 0 170.667 76.533 170.667 170.667s-76.533 170.667-170.667 170.667zM512 512c-46.933 0-85.333 38.4-85.333 85.333s38.4 85.333 85.333 85.333c46.933 0 85.333-38.4 85.333-85.333s-38.4-85.333-85.333-85.333z" />
<glyph unicode="&#xe952;" glyph-name="map" d="M1002.667 975.467c-13.067 7.733-29.333 7.733-42.667 0.267l-278.667-159.467-320.267 160c-5.6 2.933-12.267 4.8-18.933 4.8 0 0 0 0 0 0-0.267 0-0.533 0-0.8 0-8 0-15.467-2.133-21.867-5.867l-297.867-170.133c-13.333-7.733-21.6-21.867-21.6-37.067v-682.667c0-15.2 8-29.333 21.333-36.8 13.067-7.733 29.333-7.733 42.667-0.267l278.933 159.467 320-160c5.6-2.933 12-4.8 18.667-4.8 0 0 0 0 0 0 0.267 0 0.267 0 0.533 0 0 0 0 0 0 0 0.267 0 0.267 0 0.533 0s0.533 0 0.533 0c0 0 0 0 0.267 0s0.267 0 0.533 0c0 0 0 0 0 0 7.467 0.267 14.4 2.4 20.267 5.867l298.133 170.4c13.333 7.467 21.6 21.6 21.6 37.067v682.4c0 15.2-8 29.333-21.333 36.8zM384 869.6l256-128v-587.2l-256 128v587.2zM85.333 743.2l213.333 121.867v-584.267l-213.333-121.867v584.267zM938.667 280.8l-213.333-121.867v584.267l213.333 121.867v-584.267z" />
<glyph unicode="&#xe953;" glyph-name="maximize-2" d="M938.667 897.6c0 0 0 0 0 0 0 0.267 0 0.267 0 0.533 0 0 0 0.267 0 0.267s0 0.267 0 0.267c0 0 0 0.267 0 0.267s0 0 0 0c-0.267 4.533-1.333 8.8-2.933 12.8 0 0 0 0 0 0.267 0 0 0 0 0 0.267 0 0 0 0.267-0.267 0.267 0 0 0 0 0 0-1.6 4-4 7.467-6.667 10.933 0 0 0 0 0 0s-0.267 0.267-0.267 0.267c0 0 0 0 0 0s-0.267 0.267-0.267 0.267-0.267 0.267-0.267 0.267 0 0 0 0.267c-1.067 1.067-1.867 2.133-2.933 2.933 0 0 0 0-0.267 0 0 0-0.267 0.267-0.267 0.267s-0.267 0-0.267 0.267c0 0 0 0-0.267 0 0 0-0.267 0.267-0.267 0.267s0 0 0 0c-3.2 2.933-6.933 5.067-10.933 6.667 0 0 0 0 0 0s-0.267 0-0.267 0c0 0 0 0-0.267 0 0 0 0 0-0.267 0-4 1.6-8.267 2.667-12.8 2.933 0 0 0 0 0 0s-0.267 0-0.267 0c0 0-0.267 0-0.267 0s-0.267 0-0.267 0c0 0-0.267 0-0.267 0s0 0-0.267 0c-0.533 0-1.067 0-1.6 0h-256c-23.467 0-42.667-19.2-42.667-42.667s19.2-42.667 42.667-42.667h153.067l-225.867-225.867c-16.533-16.533-16.533-43.733 0-60.267 8.267-8.267 19.2-12.533 30.133-12.533s21.867 4.267 30.133 12.533l225.6 226.667v-153.067c0-23.467 19.2-42.667 42.667-42.667s42.667 19.2 42.667 42.667v256c0 0.533 0 1.067 0 1.6zM396.533 456.8l-225.867-225.867v153.067c0 23.467-19.2 42.667-42.667 42.667s-42.667-19.2-42.667-42.667v-256c0-5.867 1.067-11.467 3.2-16.533 0 0 0 0 0 0s0-0.267 0.267-0.267c0 0 0 0 0-0.267 0 0 0 0 0-0.267 1.6-3.733 3.733-7.2 6.4-10.4 0 0 0 0 0 0s0.267-0.267 0.267-0.267c0 0 0 0 0.267-0.267 0 0 0 0 0.267-0.267 0 0 0.267-0.267 0.267-0.267s0 0 0 0c1.067-1.067 1.867-2.133 2.933-2.933 0 0 0 0 0 0s0.267-0.267 0.267-0.267c0 0 0 0 0.267-0.267 0 0 0 0 0.267-0.267 0 0 0.267-0.267 0.267-0.267s0 0 0 0 0.267-0.267 0.267-0.267c0 0 0 0 0 0 3.2-2.667 6.4-4.533 9.867-6.133 0 0 0 0 0.267 0 0 0 0 0 0.267 0 4.533-1.867 9.6-3.2 14.933-3.467 0 0 0 0 0 0 0.267 0 0.267 0 0.533 0 0 0 0 0 0 0s0.267 0 0.267 0c0 0 0.267 0 0.267 0s0.267 0 0.267 0 0.267 0 0.533 0h256c23.467 0 42.667 19.2 42.667 42.667s-19.2 42.667-42.667 42.667h-152.8l225.867 225.867c16.533 16.533 16.533 43.733 0 60.267-16.533 16.8-43.733 16.8-60.267 0z" />
<glyph unicode="&#xe954;" glyph-name="maximize" d="M341.333 938.667h-128c-70.667 0-128-57.333-128-128v-128c0-23.467 19.2-42.667 42.667-42.667s42.667 19.2 42.667 42.667v128c0 23.467 19.2 42.667 42.667 42.667h128c23.467 0 42.667 19.2 42.667 42.667s-19.2 42.667-42.667 42.667zM810.667 938.667h-128c-23.467 0-42.667-19.2-42.667-42.667s19.2-42.667 42.667-42.667h128c23.467 0 42.667-19.2 42.667-42.667v-128c0-23.467 19.2-42.667 42.667-42.667s42.667 19.2 42.667 42.667v128c0 70.667-57.333 128-128 128zM896 384c-23.467 0-42.667-19.2-42.667-42.667v-128c0-23.467-19.2-42.667-42.667-42.667h-128c-23.467 0-42.667-19.2-42.667-42.667s19.2-42.667 42.667-42.667h128c70.667 0 128 57.333 128 128v128c0 23.467-19.2 42.667-42.667 42.667zM341.333 170.667h-128c-23.467 0-42.667 19.2-42.667 42.667v128c0 23.467-19.2 42.667-42.667 42.667s-42.667-19.2-42.667-42.667v-128c0-70.667 57.333-128 128-128h128c23.467 0 42.667 19.2 42.667 42.667s-19.2 42.667-42.667 42.667z" />
<glyph unicode="&#xe955;" glyph-name="menu" d="M896 554.667h-768c-23.467 0-42.667-19.2-42.667-42.667s19.2-42.667 42.667-42.667h768c23.467 0 42.667 19.2 42.667 42.667s-19.2 42.667-42.667 42.667zM128 725.333h768c23.467 0 42.667 19.2 42.667 42.667s-19.2 42.667-42.667 42.667h-768c-23.467 0-42.667-19.2-42.667-42.667s19.2-42.667 42.667-42.667zM896 298.667h-768c-23.467 0-42.667-19.2-42.667-42.667s19.2-42.667 42.667-42.667h768c23.467 0 42.667 19.2 42.667 42.667s-19.2 42.667-42.667 42.667z" />
<glyph unicode="&#xe956;" glyph-name="mic-off" d="M1011.467 72.8l-249.067 249.067c-1.867 3.467-4.267 6.4-7.2 9.333-2.667 2.667-5.6 4.8-8.8 6.667l-113.6 113.6c0 0 0 0-0.267 0.267 0 0-0.267 0.267-0.267 0.267l-218.133 218.133c0 0 0 0-0.267 0.267l-341.333 341.333c-16.533 16.533-43.733 16.533-60.267 0s-16.533-43.733 0-60.267l329.067-329.067v-110.4c0-94.133 76.533-170.4 170.667-170.4 30.933 0 60.8 8.267 86.667 23.467l62.933-62.933c-40-28.8-87.2-45.6-137.067-48-4 1.333-8.267 1.867-12.533 1.867s-8.533-0.533-12.533-1.867c-135.467 6.667-243.467 118.667-243.467 255.733v2.133c0 0 0 0.267 0 0.267v85.333c0 23.467-19.2 42.667-42.667 42.667s-42.667-19.2-42.667-42.667v-87.733c0-173.867 130.4-317.6 298.667-338.667v-85.867h-128c-23.467 0-42.667-19.2-42.667-42.667s19.2-42.667 42.667-42.667h341.333c23.467 0 42.667 19.2 42.667 42.667s-19.2 42.667-42.667 42.667h-128v85.867c61.6 7.733 119.2 31.733 168 70.133l228.533-228.533c8.267-8.267 19.2-12.533 30.133-12.533s21.867 4.267 30.133 12.533c16.8 16.267 16.8 43.467 0 60zM512 426.667c-46.933 0-85.333 38.133-85.333 85.333v25.067l107.467-107.467c-7.2-1.867-14.667-2.933-22.133-2.933zM377.867 837.867c23.2-4.8 45.6 9.867 50.4 33.067 8.533 39.467 43.467 67.733 83.733 67.733 46.933 0 85.333-38.4 85.333-85.333v-227.733c0-23.467 19.2-42.667 42.667-42.667s42.667 19.2 42.667 42.667v227.733c0 94.133-76.533 170.667-170.667 170.667-80.267 0-150.667-57.067-166.933-135.733-5.067-22.933 9.867-45.333 32.8-50.4zM797.867 415.733c2.667-0.533 5.333-0.8 7.733-0.8 20.267 0 38.133 14.4 41.867 34.933 3.733 20.267 5.6 41.333 5.6 62.133v85.333c0 23.467-19.2 42.667-42.667 42.667s-42.667-19.2-42.667-42.667v-85.333c0-15.733-1.333-31.467-4.267-46.667-4-23.2 11.2-45.333 34.4-49.6z" />
<glyph unicode="&#xe957;" glyph-name="mic" d="M512 341.333c94.133 0 170.667 76.533 170.667 170.667v341.333c0 94.133-76.533 170.667-170.667 170.667s-170.667-76.533-170.667-170.667v-341.333c0-94.133 76.533-170.667 170.667-170.667zM426.667 853.333c0 46.933 38.4 85.333 85.333 85.333s85.333-38.4 85.333-85.333v-341.333c0-46.933-38.4-85.333-85.333-85.333s-85.333 38.4-85.333 85.333v341.333zM810.667 640c-23.467 0-42.667-19.2-42.667-42.667v-85.333c0-141.067-114.933-256-256-256s-256 114.933-256 256v85.333c0 23.467-19.2 42.667-42.667 42.667s-42.667-19.2-42.667-42.667v-85.333c0-173.867 130.4-317.6 298.667-338.667v-88h-128c-23.467 0-42.667-19.2-42.667-42.667s19.2-42.667 42.667-42.667h341.333c23.467 0 42.667 19.2 42.667 42.667s-19.2 42.667-42.667 42.667h-128v88c168.267 21.067 298.667 164.8 298.667 338.667v85.333c0 23.467-19.2 42.667-42.667 42.667z" />
<glyph unicode="&#xe958;" glyph-name="minimize-2" d="M926.133 926.133c-16.533 16.533-43.733 16.533-60.267 0l-225.867-225.867v153.067c0 23.467-19.2 42.667-42.667 42.667s-42.667-19.2-42.667-42.667v-256c0-0.533 0-1.067 0-1.6 0 0 0 0 0-0.267 0 0 0-0.267 0-0.267s0-0.267 0-0.267c0 0 0-0.267 0-0.267s0-0.267 0-0.267c0 0 0 0 0 0 0.267-4.533 1.333-8.8 2.933-12.8 0 0 0 0 0-0.267 0 0 0 0 0-0.267 0 0 0-0.267 0.267-0.267 0 0 0 0 0 0 1.6-4 4-7.467 6.667-10.933 0 0 0 0 0 0s0.267-0.267 0.267-0.267c0 0 0 0 0 0s0.267-0.267 0.267-0.267 0.267-0.267 0.267-0.267 0 0 0-0.267c1.067-1.067 1.867-2.133 2.933-2.933 0 0 0 0 0.267 0 0 0 0.267-0.267 0.267-0.267s0.267 0 0.267-0.267c0 0 0 0 0.267 0 0 0 0.267-0.267 0.267-0.267s0 0 0 0c3.2-2.933 6.933-5.067 10.667-6.667 0 0 0 0 0.267 0 0 0 0.267 0 0.267 0s0.267 0 0.267 0c0 0 0 0 0 0 4.267-1.867 9.067-2.933 13.867-3.2 0 0 0 0 0 0 0.267 0 0.267 0 0.533 0 0 0 0 0 0 0s0.267 0 0.267 0c0 0 0.267 0 0.267 0s0.267 0 0.267 0 0.267 0 0.533 0h256c23.467 0 42.667 19.2 42.667 42.667s-19.2 42.667-42.667 42.667h-153.067l225.867 225.867c17.333 16 17.333 43.2 0.533 59.733zM466.133 443.2c0 0 0 0.267-0.267 0.267 0 0 0 0 0 0.267 0 0 0 0 0 0.267-1.6 3.733-3.733 7.2-6.4 10.4 0 0 0 0 0 0s-0.267 0.267-0.267 0.267c0 0 0 0-0.267 0.267 0 0 0 0-0.267 0.267 0 0-0.267 0.267-0.267 0.267s0 0 0 0c-1.067 1.067-1.867 2.133-2.933 2.933 0 0 0 0 0 0s-0.267 0.267-0.267 0.267c0 0 0 0-0.267 0.267 0 0 0 0-0.267 0.267 0 0-0.267 0.267-0.267 0.267s0 0 0 0-0.267 0.267-0.267 0.267v0c-2.933 2.4-5.867 4.267-9.067 5.867v0c0 0-0.267 0-0.267 0s-0.267 0-0.267 0c0 0 0 0 0 0-5.333 2.4-11.2 3.733-17.333 3.733h-256.533c-23.467 0-42.667-19.2-42.667-42.667s19.2-42.667 42.667-42.667h153.067l-225.867-225.867c-16.533-16.533-16.533-43.733 0-60.267 8.267-8.267 19.2-12.533 30.133-12.533s21.867 4.267 30.133 12.533l225.867 225.867v-153.067c0-23.467 19.2-42.667 42.667-42.667s42.667 19.2 42.667 42.667v256c0 5.867-1.067 11.467-3.2 16.533 0 0 0 0 0 0z" />
<glyph unicode="&#xe959;" glyph-name="minimize" d="M341.333 938.667c-23.467 0-42.667-19.2-42.667-42.667v-128c0-23.467-19.2-42.667-42.667-42.667h-128c-23.467 0-42.667-19.2-42.667-42.667s19.2-42.667 42.667-42.667h128c70.667 0 128 57.333 128 128v128c0 23.467-19.2 42.667-42.667 42.667zM768 640h128c23.467 0 42.667 19.2 42.667 42.667s-19.2 42.667-42.667 42.667h-128c-23.467 0-42.667 19.2-42.667 42.667v128c0 23.467-19.2 42.667-42.667 42.667s-42.667-19.2-42.667-42.667v-128c0-70.667 57.333-128 128-128zM896 384h-128c-70.667 0-128-57.333-128-128v-128c0-23.467 19.2-42.667 42.667-42.667s42.667 19.2 42.667 42.667v128c0 23.467 19.2 42.667 42.667 42.667h128c23.467 0 42.667 19.2 42.667 42.667s-19.2 42.667-42.667 42.667zM256 384h-128c-23.467 0-42.667-19.2-42.667-42.667s19.2-42.667 42.667-42.667h128c23.467 0 42.667-19.2 42.667-42.667v-128c0-23.467 19.2-42.667 42.667-42.667s42.667 19.2 42.667 42.667v128c0 70.667-57.333 128-128 128z" />
<glyph unicode="&#xe95a;" glyph-name="minus-circle" d="M512 981.333c-258.667 0-469.333-210.667-469.333-469.333s210.667-469.333 469.333-469.333 469.333 210.667 469.333 469.333-210.667 469.333-469.333 469.333zM512 128c-211.733 0-384 172.267-384 384s172.267 384 384 384c211.733 0 384-172.267 384-384s-172.267-384-384-384zM682.667 554.667h-341.333c-23.467 0-42.667-19.2-42.667-42.667s19.2-42.667 42.667-42.667h341.333c23.467 0 42.667 19.2 42.667 42.667s-19.2 42.667-42.667 42.667z" />
<glyph unicode="&#xe95b;" glyph-name="minus-square" d="M810.667 938.667h-597.333c-70.667 0-128-57.333-128-128v-597.333c0-70.667 57.333-128 128-128h597.333c70.667 0 128 57.333 128 128v597.333c0 70.667-57.333 128-128 128zM853.333 213.333c0-23.467-19.2-42.667-42.667-42.667h-597.333c-23.467 0-42.667 19.2-42.667 42.667v597.333c0 23.467 19.2 42.667 42.667 42.667h597.333c23.467 0 42.667-19.2 42.667-42.667v-597.333zM682.667 554.667h-341.333c-23.467 0-42.667-19.2-42.667-42.667s19.2-42.667 42.667-42.667h341.333c23.467 0 42.667 19.2 42.667 42.667s-19.2 42.667-42.667 42.667z" />
<glyph unicode="&#xe95c;" glyph-name="minus" d="M810.667 554.667h-597.333c-23.467 0-42.667-19.2-42.667-42.667s19.2-42.667 42.667-42.667h597.333c23.467 0 42.667 19.2 42.667 42.667s-19.2 42.667-42.667 42.667z" />
<glyph unicode="&#xe95d;" glyph-name="monitor" d="M853.333 938.667h-682.667c-70.667 0-128-57.333-128-128v-426.667c0-70.667 57.333-128 128-128h298.667v-85.333h-128c-23.467 0-42.667-19.2-42.667-42.667s19.2-42.667 42.667-42.667h341.333c23.467 0 42.667 19.2 42.667 42.667s-19.2 42.667-42.667 42.667h-128v85.333h298.667c70.667 0 128 57.333 128 128v426.667c0 70.667-57.333 128-128 128zM896 384c0-23.467-19.2-42.667-42.667-42.667h-682.667c-23.467 0-42.667 19.2-42.667 42.667v426.667c0 23.467 19.2 42.667 42.667 42.667h682.667c23.467 0 42.667-19.2 42.667-42.667v-426.667z" />
<glyph unicode="&#xe95e;" glyph-name="moon" d="M931.2 504c-13.867 18.933-40.267 23.2-59.2 9.6l-0.8-0.533c-0.533-0.267-1.067-0.8-1.6-1.067-44-32.267-96.267-49.333-151.2-49.333-141.067 0-256 114.933-256 256 0 54.4 17.333 108.533 49.067 152.533 9.867 13.6 10.667 31.733 2.4 46.133s-24.267 22.667-41.067 21.067c-105.067-10.133-202.4-58.667-274.133-136.8-72-78.667-111.733-181.067-111.733-287.733 0-235.2 191.467-426.667 426.667-426.667 106.933 0 209.067 39.733 288 112 76.267 70.133 124.533 164.8 136.267 267.733 3.467 12 1.6 25.867-6.667 37.067zM743.733 261.867c-62.933-57.6-144.8-89.6-230.133-89.6-188.267 0-341.333 153.067-341.333 341.333 0 85.333 31.733 167.2 89.333 230.133 37.6 41.067 84.267 72 135.733 90.667-13.067-37.333-20-76.8-20-116.267 0-188.267 153.067-341.333 341.333-341.333 40 0 79.2 6.933 116 20-18.933-50.933-49.867-97.333-90.933-134.933z" />
<glyph unicode="&#xe95f;" glyph-name="more-horizontal" d="M512 640c-70.667 0-128-57.333-128-128s57.333-128 128-128c70.667 0 128 57.333 128 128s-57.333 128-128 128zM512 469.333c-23.467 0-42.667 19.2-42.667 42.667s19.2 42.667 42.667 42.667 42.667-19.2 42.667-42.667-19.2-42.667-42.667-42.667zM853.333 640c-70.667 0-128-57.333-128-128s57.333-128 128-128 128 57.333 128 128c0 70.667-57.333 128-128 128zM853.333 469.333c-23.467 0-42.667 19.2-42.667 42.667s19.2 42.667 42.667 42.667 42.667-19.2 42.667-42.667-19.2-42.667-42.667-42.667zM170.667 640c-70.667 0-128-57.333-128-128s57.333-128 128-128 128 57.333 128 128c0 70.667-57.333 128-128 128zM170.667 469.333c-23.467 0-42.667 19.2-42.667 42.667s19.2 42.667 42.667 42.667 42.667-19.2 42.667-42.667-19.2-42.667-42.667-42.667z" />
<glyph unicode="&#xe960;" glyph-name="more-vertical" d="M512 640c-70.667 0-128-57.333-128-128s57.333-128 128-128c70.667 0 128 57.333 128 128s-57.333 128-128 128zM512 469.333c-23.467 0-42.667 19.2-42.667 42.667s19.2 42.667 42.667 42.667 42.667-19.2 42.667-42.667-19.2-42.667-42.667-42.667zM512 725.333c70.667 0 128 57.333 128 128s-57.333 128-128 128c-70.667 0-128-57.333-128-128s57.333-128 128-128zM512 896c23.467 0 42.667-19.2 42.667-42.667s-19.2-42.667-42.667-42.667-42.667 19.2-42.667 42.667 19.2 42.667 42.667 42.667zM512 298.667c-70.667 0-128-57.333-128-128s57.333-128 128-128c70.667 0 128 57.333 128 128s-57.333 128-128 128zM512 128c-23.467 0-42.667 19.2-42.667 42.667s19.2 42.667 42.667 42.667 42.667-19.2 42.667-42.667-19.2-42.667-42.667-42.667z" />
<glyph unicode="&#xe961;" glyph-name="move" d="M970.4 483.467c0 0 0 0 0 0 0.267 0.267 0.267 0.267 0.267 0.267s0 0 0 0 0.267 0.267 0.267 0.267c0 0 0.267 0.267 0.267 0.267s0 0 0 0 0.267 0.267 0.267 0.267c0 0 0 0 0 0 2.667 3.2 4.8 6.667 6.4 10.4 0 0 0 0 0 0.267 0 0 0 0.267 0 0.267s0 0.267 0 0.267c0 0 0 0 0 0 1.6 4 2.667 8.267 2.933 12.8 0 0 0 0 0 0s0 0.267 0 0.267c0 0 0 0.267 0 0.267s0 0.267 0 0.267c0 0 0 0.267 0 0.267s0 0 0 0.267c0 1.067 0 2.133 0 3.2 0 0 0 0 0 0.267 0 0 0 0.267 0 0.267s0 0.267 0 0.267c0 0 0 0.267 0 0.267s0 0.267 0 0.267c0 0 0 0 0 0-0.267 4.267-1.333 8.533-2.933 12.533 0 0 0 0 0 0s0 0.267 0 0.267c0 0 0 0.267 0 0.267s0 0 0 0c-1.867 4.533-4.533 8.8-8 12.533 0 0 0 0 0 0s-0.267 0.267-0.267 0.267c0 0 0 0-0.267 0.267 0 0 0 0.267-0.267 0.267 0 0-0.267 0.267-0.267 0.267s0 0-0.267 0.267c0 0-0.267 0.267-0.267 0.267l-128 128c-16.533 16.533-43.733 16.533-60.267 0s-16.533-43.733 0-60.267l55.2-55.2h-280.533v281.6l55.2-55.2c8.267-8.267 19.2-12.533 30.133-12.533s21.867 4.267 30.133 12.533c16.533 16.533 16.533 43.733 0 60.267l-128 128c0 0-0.267 0.267-0.267 0.267s0 0-0.267 0.267c0 0-0.267 0.267-0.267 0.267s-0.267 0.267-0.267 0.267c0 0 0 0-0.267 0.267 0 0-0.267 0.267-0.267 0.267s0 0 0 0-0.267 0.267-0.267 0.267c0 0 0 0 0 0-3.467 3.2-7.467 5.6-11.733 7.467 0 0 0 0 0 0s-0.267 0-0.267 0c0 0-0.267 0-0.267 0s0 0 0 0c-4.267 1.867-9.067 2.933-13.867 2.933 0 0 0 0 0 0-0.267 0-0.267 0-0.533 0 0 0 0 0 0 0s-0.267 0-0.267 0c0 0-0.267 0-0.267 0s-0.267 0-0.267 0-0.267 0-0.533 0v0 0c-0.267 0-0.267 0-0.533 0 0 0-0.267 0-0.267 0s-0.267 0-0.267 0c0 0-0.267 0-0.267 0s0 0 0 0c-0.267 0-0.267 0-0.533 0 0 0 0 0 0 0-4.8-0.267-9.6-1.333-13.867-2.933 0 0 0 0-0.267 0 0 0 0 0-0.267 0-5.067-2.133-9.867-5.067-13.867-9.333l-128-128c-16.533-16.533-16.533-43.733 0-60.267s43.733-16.533 60.267 0l54.933 55.2v-281.067h-281.067l55.2 55.2c16.533 16.533 16.533 43.733 0 60.267s-43.733 16.533-60.267 0l-128-128c-4.267-4.267-7.2-8.8-9.333-13.867 0 0 0 0 0 0s0-0.267 0-0.267c0 0 0-0.267 0-0.267s0 0 0 0c-1.6-4.267-2.667-8.8-2.933-13.6v0c0-0.267 0-0.267 0-0.533 0 0 0 0 0 0s0-0.267 0-0.267c0 0 0-0.267 0-0.267s0-0.267 0-0.267 0-0.267 0-0.533v0 0c0-0.267 0-0.267 0-0.533 0 0 0-0.267 0-0.267s0-0.267 0-0.267c0 0 0-0.267 0-0.267s0 0 0 0c0-0.267 0-0.267 0-0.533 0 0 0 0 0 0 0.267-4.8 1.333-9.6 2.933-13.867 0 0 0 0 0 0s0-0.267 0-0.267c0 0 0-0.267 0-0.267s0 0 0 0c1.867-4.267 4.267-8 7.467-11.733 0 0 0 0 0 0s0.267-0.267 0.267-0.267c0 0 0 0 0 0s0.267-0.267 0.267-0.267c0 0 0 0 0.267-0.267 0 0 0.267-0.267 0.267-0.267s0.267-0.267 0.267-0.267c0 0 0 0 0.267-0.267 0 0 0.267-0.267 0.267-0.267l128-128c8.267-8.267 19.2-12.533 30.133-12.533s21.867 4.267 30.133 12.533c16.533 16.533 16.533 43.733 0 60.267l-55.2 54.667h281.067v-281.067l-55.2 55.2c-16.533 16.533-43.733 16.533-60.267 0s-16.533-43.733 0-60.267l128-128c0 0 0.267-0.267 0.267-0.267s0 0 0.267-0.267c0 0 0.267-0.267 0.267-0.267s0 0 0.267-0.267c0 0 0.267-0.267 0.267-0.267s0.267 0 0.267-0.267c0 0 0 0 0.267-0.267 0 0 0.267-0.267 0.267-0.267s0 0 0 0c3.467-2.933 7.2-5.333 11.2-7.2 0 0 0 0 0 0s0.267 0 0.267 0c0 0 0.267 0 0.267 0s0 0 0 0c4.533-1.867 9.333-2.933 14.4-3.2 0 0 0 0 0 0 0.267 0 0.267 0 0.533 0 0 0 0 0 0 0s0.267 0 0.267 0c0 0 0.267 0 0.267 0s0.267 0 0.267 0 0.267 0 0.533 0 0.267 0 0.533 0c0 0 0.267 0 0.267 0s0.267 0 0.267 0c0 0 0.267 0 0.267 0s0 0 0 0c0.267 0 0.267 0 0.533 0 0 0 0 0 0 0 5.333 0.267 10.4 1.333 14.933 3.467 0 0 0 0 0 0s0.267 0 0.267 0c0 0 0.267 0 0.267 0s0 0 0 0c3.2 1.333 6.133 3.2 9.067 5.6 0 0 0 0 0 0s0.267 0.267 0.267 0.267c0 0 0 0 0 0s0.267 0.267 0.267 0.267c0 0 0 0 0.267 0.267 0 0 0 0 0.267 0.267 0 0 0.267 0.267 0.267 0.267s0 0 0 0c0.8 0.533 1.333 1.333 2.133 2.133l127.733 127.733c16.533 16.533 16.533 43.733 0 60.267s-43.733 16.533-60.267 0l-54.667-54.933v281.067h281.067l-55.2-55.2c-16.533-16.533-16.533-43.733 0-60.267 8.267-8.267 19.2-12.533 30.133-12.533s21.867 4.267 30.133 12.533l127.733 127.733c0.8 0.533 1.333 1.333 1.867 1.867z" />
<glyph unicode="&#xe962;" glyph-name="music" d="M923.467 928.533c-9.6 8-22.133 11.467-34.667 9.6l-512-85.333c-20.533-3.467-35.733-21.333-35.733-42.133v-469.333h-127.733c-70.667 0-128-57.333-128-128s57.333-128 128-128h85.333c70.667 0 128 57.333 128 128v561.067l426.667 71.2v-418.933h-128c-70.667 0-128-57.333-128-128s57.333-128 128-128h85.333c70.667 0 128 57.333 128 128v597.333c0 12.533-5.6 24.533-15.2 32.533zM341.333 213.333c0-23.467-19.2-42.667-42.667-42.667h-85.333c-23.467 0-42.667 19.2-42.667 42.667s19.2 42.667 42.667 42.667h128v-42.667zM853.333 298.667c0-23.467-19.2-42.667-42.667-42.667h-85.333c-23.467 0-42.667 19.2-42.667 42.667s19.2 42.667 42.667 42.667h128v-42.667z" />
<glyph unicode="&#xe963;" glyph-name="octagon" d="M968.8 718.933l-250.133 250.133c-8 8-18.933 12.533-30.133 12.533h-353.067c-11.2 0-22.133-4.533-30.133-12.533l-250.133-250.133c-8-8-12.533-18.933-12.533-30.133v-353.333c0-11.2 4.533-22.133 12.533-30.133l250.133-250.133c8-8 18.933-12.533 30.133-12.533h353.333c11.2 0 22.133 4.533 30.133 12.533l250.133 250.133c8 8 12.533 18.933 12.533 30.133v353.067c-0.267 11.467-4.8 22.4-12.8 30.4zM896 353.067l-225.067-225.067h-317.867l-225.067 225.067v317.867l225.067 225.067h317.867l225.067-225.067v-317.867z" />
<glyph unicode="&#xe964;" glyph-name="pause" d="M384 896h-85.333c-46.933 0-85.333-38.4-85.333-85.333v-597.333c0-46.933 38.4-85.333 85.333-85.333h85.333c46.933 0 85.333 38.4 85.333 85.333v597.333c0 46.933-38.4 85.333-85.333 85.333zM384 213.333h-85.333v597.333c0 0 0 0 0 0h85.333v-597.333zM725.333 896h-85.333c-46.933 0-85.333-38.4-85.333-85.333v-597.333c0-46.933 38.4-85.333 85.333-85.333h85.333c46.933 0 85.333 38.4 85.333 85.333v597.333c0 46.933-38.4 85.333-85.333 85.333zM725.333 213.333h-85.333v597.333c0 0 0 0 0 0h85.333v-597.333z" />
<glyph unicode="&#xe965;" glyph-name="phone-call" d="M768.533 635.2c4-20.267 21.867-34.4 41.867-34.4 2.667 0 5.6 0.267 8.533 0.8 23.2 4.533 38.133 27.2 33.333 50.133-20.267 101.333-99.467 180.267-201.867 200.533-23.2 4.533-45.6-10.4-50.133-33.333s10.4-45.6 33.6-50.133c68.267-13.6 121.067-66.133 134.667-133.6zM1023.467 649.333c-10.933 94.933-54.667 184.533-122.667 252.267s-158.4 111.2-253.867 122.133c-23.467 2.667-44.533-14.133-47.2-37.6s14.133-44.533 37.6-47.2c76.8-8.8 149.067-43.467 203.467-97.867 54.4-54.133 89.333-125.867 98.133-201.6 2.4-21.867 21.067-37.867 42.4-37.867 1.6 0 3.2 0 5.067 0.267 23.2 2.933 39.733 24 37.067 47.467zM868.533 431.2c0 0-0.267 0-0.267 0-37.867 5.067-74.667 14.4-106.933 26.933-14.667 5.6-30.133 8.533-45.867 8.533-33.6 0-65.333-12.8-89.333-36.267l-33.333-30.4c-77.067 49.6-143.2 116.267-193.6 194.667l30.667 30.667c23.733 24 37.067 56 37.067 90.133 0 15.2-2.667 30.933-7.2 42.133-13.867 36.267-23.2 73.6-28.533 114.133 0 0.267 0 0.267 0 0.533-9.067 62.4-63.467 109.333-126.667 109.333h-128.8c-70.4 0-128-57.6-128-128 0-4.533 0.267-8.533 0.8-15.467 0-0.267 0-0.533 0-0.8 15.2-137.867 63.2-272 139.2-388 67.467-104.8 158.4-195.733 263.467-263.2 117.067-76.8 248.267-123.733 389.6-139.467 0.267 0 0.533 0 0.8 0 4-0.267 8-0.533 12-0.533 70.667 0 128 57.333 128 128v128c0 0.8 0 1.6 0 2.4-0.267 64-47.733 117.333-113.067 126.667zM380.533 724.8c0 0.267 0 0.267-0.267 0.533 0.267 0 0.267-0.267 0.267-0.533zM896 302.933c0-0.533 0-1.067 0-1.867v-127.467c0-23.467-19.2-42.667-42.667-42.667-1.333 0-2.4 0-3.733 0.267-127.733 14.4-246.133 56.8-352 126.133 0 0-0.267 0.267-0.267 0.267-94.667 60.8-177.067 143.2-237.867 237.867 0 0 0 0.267-0.267 0.267-68.8 104.8-112.267 226.133-125.867 350.4-0.533 5.067-0.533 6.4-0.533 7.2 0 23.467 19.2 42.667 42.667 42.667h128c0.267 0 0.267 0 0.533 0h0.267c21.067 0 39.2-15.467 42.133-36.267 6.4-47.2 17.333-90.933 33.6-133.333 0-0.267 0.267-0.533 0.267-0.533 0.533-1.6 1.067-5.867 1.067-10.4 0-11.2-4.267-21.867-12.267-29.867l-54.133-54.133c-13.6-13.6-16.533-34.667-6.933-51.467 64.8-112.8 157.6-206.133 268.267-269.867 16-9.333 36.267-7.2 50.133 5.333l57.6 52.533c0.533 0.267 0.8 0.8 1.333 1.067 8 8 18.667 12.267 29.867 12.267 5.333 0 10.4-1.067 15.2-2.667 38.133-14.667 81.867-25.867 125.867-31.733 23.2-3.467 39.467-20.8 39.467-42.667 0.267-0.533 0.267-0.8 0.267-1.333z" />
<glyph unicode="&#xe966;" glyph-name="phone-forwarded" d="M1013.067 782.133c0 0 0 0 0 0 0.267 0.267 0.267 0.267 0.267 0.267s0.267 0.267 0.267 0.267c0 0 0 0 0 0s0.267 0.267 0.267 0.267c0 0 0 0 0 0 2.933 3.467 5.067 6.933 6.667 10.933 0 0 0 0 0 0s0 0.267 0.267 0.267c0 0 0 0 0 0.267 0 0 0 0 0 0.267 1.6 4 2.667 8.267 2.933 12.8 0 0 0 0 0 0s0 0.267 0 0.267c0 0 0 0.267 0 0.267s0 0.267 0 0.267c0 0 0 0.267 0 0.267s0 0 0 0.267c0 1.067 0 2.133 0 3.2 0 0 0 0 0 0.267 0 0 0 0.267 0 0.267s0 0.267 0 0.267c0 0 0 0.267 0 0.267s0 0.267 0 0.267c0 0 0 0 0 0-0.267 4.533-1.333 8.8-2.933 12.8 0 0 0 0 0 0.267 0 0 0 0 0 0.267 0 0 0 0.267-0.267 0.267 0 0 0 0 0 0-1.6 4-4 7.467-6.667 10.933 0 0 0 0 0 0s-0.267 0.267-0.267 0.267c0 0 0 0 0 0s-0.267 0.267-0.267 0.267-0.267 0.267-0.267 0.267 0 0 0 0.267c-0.533 0.533-1.067 1.067-1.6 1.6l-170.667 170.667c-16.533 16.533-43.733 16.533-60.267 0s-16.533-43.733 0-60.267l97.867-97.6h-238.4c-23.467 0-42.667-19.2-42.667-42.667s19.2-42.667 42.667-42.667h238.4l-97.867-97.867c-16.533-16.533-16.533-43.733 0-60.267 8.267-8.267 19.2-12.533 30.133-12.533s21.867 4.267 30.133 12.533l170.667 170.667c0.533 0.267 1.067 1.067 1.6 1.6zM868.533 431.2c0 0-0.267 0-0.267 0-37.867 5.067-74.667 14.4-106.933 26.933-14.667 5.6-30.133 8.533-45.867 8.533-33.6 0-65.333-12.8-89.333-36.267l-33.333-30.4c-77.067 49.6-143.2 116.267-193.6 194.667l30.667 30.667c23.733 24 37.067 56 37.067 90.133 0 15.2-2.667 30.933-7.2 42.133-13.867 36.267-23.2 73.6-28.533 114.133 0 0.267 0 0.267 0 0.533-9.067 62.4-63.467 109.333-126.667 109.333h-128.8c-70.4 0-128-57.6-128-128 0-4.533 0.267-8.533 0.8-15.467 0-0.267 0-0.533 0-0.8 15.2-137.867 63.2-272 139.2-388 67.467-104.8 158.4-195.733 263.467-263.2 117.067-76.8 248.267-123.733 389.6-139.467 0.267 0 0.533 0 0.8 0 4-0.267 8-0.533 12-0.533 70.667 0 128 57.333 128 128v128c0 0.8 0 1.6 0 2.4-0.267 64-47.733 117.333-113.067 126.667zM380.533 724.8c0 0.267 0 0.267-0.267 0.533 0.267 0 0.267-0.267 0.267-0.533zM896 302.933c0-0.533 0-1.067 0-1.867v-127.467c0-23.467-19.2-42.667-42.667-42.667-1.333 0-2.4 0-3.733 0.267-127.733 14.4-246.133 56.8-352 126.133 0 0-0.267 0.267-0.267 0.267-94.667 60.8-177.067 143.2-237.867 237.867 0 0 0 0.267-0.267 0.267-68.8 104.8-112.267 226.133-125.867 350.4-0.533 5.067-0.533 6.4-0.533 7.2 0 23.467 19.2 42.667 42.667 42.667h128c0.267 0 0.267 0 0.533 0h0.267c21.067 0 39.2-15.467 42.133-36.267 6.4-47.2 17.333-90.933 33.6-133.333 0-0.267 0.267-0.533 0.267-0.533 0.533-1.6 1.067-5.867 1.067-10.4 0-11.2-4.267-21.867-12.267-29.867l-54.133-54.133c-13.6-13.6-16.533-34.667-6.933-51.467 64.8-112.8 157.6-206.133 268.267-269.867 16-9.333 36.267-7.2 50.133 5.333l57.6 52.533c0.533 0.267 0.8 0.8 1.333 1.067 8 8 18.667 12.267 29.867 12.267 5.333 0 10.4-1.067 15.2-2.667 38.133-14.667 81.867-25.867 125.867-31.733 23.2-3.467 39.467-20.8 39.467-42.667 0.267-0.533 0.267-0.8 0.267-1.333z" />
<glyph unicode="&#xe967;" glyph-name="phone-incoming" d="M1011.467 1011.467c-16.533 16.533-43.733 16.533-60.267 0l-225.867-225.867v153.067c0 23.467-19.2 42.667-42.667 42.667s-42.667-19.2-42.667-42.667v-256c0-0.533 0-1.067 0-1.6 0 0 0 0 0-0.267 0 0 0-0.267 0-0.267s0-0.267 0-0.267c0 0 0-0.267 0-0.267s0-0.267 0-0.267c0 0 0 0 0 0 0.267-4.533 1.333-8.8 2.933-12.8 0 0 0 0 0-0.267 0 0 0 0 0-0.267 0 0 0-0.267 0.267-0.267 0 0 0 0 0 0 1.6-4 4-7.467 6.667-10.933 0 0 0 0 0 0s0.267-0.267 0.267-0.267c0 0 0 0 0 0s0.267-0.267 0.267-0.267 0.267-0.267 0.267-0.267 0 0 0-0.267c1.067-1.067 1.867-2.133 2.933-2.933 0 0 0 0 0.267 0 0 0 0.267-0.267 0.267-0.267s0.267 0 0.267-0.267c0 0 0 0 0.267 0 0 0 0.267-0.267 0.267-0.267s0 0 0 0c3.2-2.933 6.933-5.067 10.667-6.667 0 0 0 0 0.267 0 0 0 0.267 0 0.267 0s0.267 0 0.267 0c0 0 0 0 0 0 4.267-1.867 9.067-2.933 13.867-3.2 0 0 0 0 0 0 0.267 0 0.267 0 0.533 0 0 0 0 0 0 0s0.267 0 0.267 0c0 0 0.267 0 0.267 0s0.267 0 0.267 0 0.267 0 0.533 0h256c23.467 0 42.667 19.2 42.667 42.667s-19.2 42.667-42.667 42.667h-153.067l225.867 225.867c17.333 16 17.333 43.2 0.533 59.733zM868.533 431.2c0 0-0.267 0-0.267 0-37.867 5.067-74.667 14.4-106.933 26.933-14.667 5.6-30.133 8.533-45.867 8.533-33.6 0-65.333-12.8-89.333-36.267l-33.333-30.4c-77.067 49.6-143.2 116.267-193.6 194.667l30.667 30.667c23.733 24 37.067 56 37.067 90.133 0 15.2-2.667 30.933-7.2 42.133-13.867 36.267-23.2 73.6-28.533 114.133 0 0.267 0 0.267 0 0.533-9.067 62.4-63.467 109.333-126.667 109.333h-128.8c-70.4 0-128-57.6-128-128 0-4.533 0.267-8.533 0.8-15.467 0-0.267 0-0.533 0-0.8 15.2-137.867 63.2-272 139.2-388 67.467-104.8 158.4-195.733 263.467-263.2 117.067-76.8 248.267-123.733 389.6-139.467 0.267 0 0.533 0 0.8 0 4-0.267 8-0.533 12-0.533 70.667 0 128 57.333 128 128v128c0 0.8 0 1.6 0 2.4-0.267 64-47.733 117.333-113.067 126.667zM380.533 724.8c0 0.267 0 0.267-0.267 0.533 0.267 0 0.267-0.267 0.267-0.533zM896 302.933c0-0.533 0-1.067 0-1.867v-127.467c0-23.467-19.2-42.667-42.667-42.667-1.333 0-2.4 0-3.733 0.267-127.733 14.4-246.133 56.8-352 126.133 0 0-0.267 0.267-0.267 0.267-94.667 60.8-177.067 143.2-237.867 237.867 0 0 0 0.267-0.267 0.267-68.8 104.8-112.267 226.133-125.867 350.4-0.533 5.067-0.533 6.4-0.533 7.2 0 23.467 19.2 42.667 42.667 42.667h128c0.267 0 0.267 0 0.533 0h0.267c21.067 0 39.2-15.467 42.133-36.267 6.4-47.2 17.333-90.933 33.6-133.333 0-0.267 0.267-0.533 0.267-0.533 0.533-1.6 1.067-5.867 1.067-10.4 0-11.2-4.267-21.867-12.267-29.867l-54.133-54.133c-13.6-13.6-16.533-34.667-6.933-51.467 64.8-112.8 157.6-206.133 268.267-269.867 16-9.333 36.267-7.2 50.133 5.333l57.6 52.533c0.533 0.267 0.8 0.8 1.333 1.067 8 8 18.667 12.267 29.867 12.267 5.333 0 10.4-1.067 15.2-2.667 38.133-14.667 81.867-25.867 125.867-31.733 23.2-3.467 39.467-20.8 39.467-42.667 0.267-0.533 0.267-0.8 0.267-1.333z" />
</font>
</defs>
</svg>
